×

¿Problemas para descargar con Mozilla, EDGE? Deshabilita la opción "Abrir vinculos en una pestaña nueva" tal como lo muestra ésta imagen.

Terminator: Dark Fate (2019) 1080p Latino

6.623 vistas

Información de Terminator: Dark Fate (2019) 1080p Latino

Datos de la película

  • Calidad: 1080p
  • Audio: Español Latino AC3 5.1 BLURAY - Ingles AC3 5.1 BLURAY
  • Subtitulos: Español Latino SRT- FORZADOS SRT
  • Resolución: 1920x804
  • Formato: MKV
  • Codec: H.264
  • Encoder: cinemaniahdd
  • Mediainfo: Clic para Mostrar Datos Ver
  • Terminator Dark Fate (2019) 1080p Latino.mkv
    Format                      : Matroska
    Format version              : Version 4
    File size                   : 4.09 GiB
    Duration                    : 2 h 8 min
    Overall bit rate            : 4 573 kb/s
    Movie name                  : Terminator Dark Fate (2019) - CinemaniaHDD.Net
    Encoded date                : UTC 2020-01-16 15:09:52
    Writing application         : mkvmerge v38.0.0 ('The Silent Type') 64-bit
    Writing library             : libebml v1.3.9 + libmatroska v1.5.2

    Video
    ID                          : 1
    Format                      : AVC
    Format/Info                 : Advanced Video Codec
    Format profile              : Main@L4
    Format settings             : CABAC / 5 Ref Frames
    Format settings, CABAC      : Yes
    Format settings, ReFrames   : 5 frames
    Codec ID                    : V_MPEG4/ISO/AVC
    Duration                    : 2 h 8 min
    Bit rate                    : 3 500 kb/s
    Width                       : 1 920 pixels
    Height                      : 804 pixels
    Display aspect ratio        : 2.40:1
    Frame rate mode             : Constant
    Frame rate                  : 23.976 (24000/1001) FPS
    Color space                 : YUV
    Chroma subsampling          : 4:2:0
    Bit depth                   : 8 bits
    Scan type                   : Progressive
    Bits/(Pixel*Frame)          : 0.095
    Stream size                 : 3.12 GiB (76%)
    Title                       : CinemaniaHDD
    Writing library             : x264 core 157 r2935 545de2f
    Encoding settings           : cabac=1 / ref=5 / deblock=1:0:0 / analyse=0x1:0x131 / me=umh / subme=9 / psy=1 / psy_rd=1.00:0.00 / mixed_ref=1 / me_range=16 / chroma_me=1 / trellis=2 / 8x8dct=0 / cqm=0 / deadzone=21,11 / fast_pskip=1 / chroma_qp_offset=-2 / threads=25 / lookahead_threads=2 / sliced_threads=0 / nr=0 / decimate=1 / interlaced=0 / bluray_compat=0 / constrained_intra=0 / bframes=3 / b_pyramid=2 / b_adapt=2 / b_bias=0 / direct=3 / weightb=1 / open_gop=0 / weightp=2 / keyint=240 / keyint_min=24 / scenecut=40 / intra_refresh=0 / rc_lookahead=60 / rc=abr / mbtree=1 / bitrate=3500 / ratetol=1.0 / qcomp=0.60 / qpmin=0 / qpmax=69 / qpstep=4 / vbv_maxrate=20000 / vbv_bufsize=25000 / nal_hrd=none / filler=0 / ip_ratio=1.40 / aq=1:1.00
    Default                     : Yes
    Forced                      : No
    Color range                 : Limited
    Color primaries             : BT.709
    Transfer characteristics    : BT.709
    Matrix coefficients         : BT.709

    Audio #1
    ID                          : 2
    Format                      : AC-3
    Format/Info                 : Audio Coding 3
    Commercial name             : Dolby Digital
    Codec ID                    : A_AC3
    Duration                    : 2 h 8 min
    Bit rate mode               : Constant
    Bit rate                    : 640 kb/s
    Channel(s)                  : 6 channels
    Channel layout              : L R C LFE Ls Rs
    Sampling rate               : 48.0 kHz
    Frame rate                  : 31.250 FPS (1536 SPF)
    Bit depth                   : 16 bits
    Compression mode            : Lossy
    Delay relative to video     : 23 ms
    Stream size                 : 586 MiB (14%)
    Title                       : Español latino [CinemaniaHDD]
    Language                    : Spanish
    Service kind                : Complete Main
    Default                     : Yes
    Forced                      : No

    Audio #2
    ID                          : 3
    Format                      : AC-3
    Format/Info                 : Audio Coding 3
    Commercial name             : Dolby Digital
    Codec ID                    : A_AC3
    Duration                    : 2 h 8 min
    Bit rate mode               : Constant
    Bit rate                    : 448 kb/s
    Channel(s)                  : 6 channels
    Channel layout              : L R C LFE Ls Rs
    Sampling rate               : 48.0 kHz
    Frame rate                  : 31.250 FPS (1536 SPF)
    Bit depth                   : 16 bits
    Compression mode            : Lossy
    Delay relative to video     : -5 ms
    Stream size                 : 410 MiB (10%)
    Title                       : Inglés [CinemaniaHDD]
    Language                    : English
    Service kind                : Complete Main
    Default                     : No
    Forced                      : No

    Text #1
    ID                          : 4
    Format                      : UTF-8
    Codec ID                    : S_TEXT/UTF8
    Codec ID/Info               : UTF-8 Plain Text
    Duration                    : 2 h 4 min
    Bit rate                    : 0 b/s
    Count of elements           : 13
    Stream size                 : 393 Bytes (0%)
    Title                       : Forzados [CinemaniaHDD]
    Language                    : Spanish
    Default                     : Yes
    Forced                      : Yes

    Text #2
    ID                          : 5
    Format                      : UTF-8
    Codec ID                    : S_TEXT/UTF8
    Codec ID/Info               : UTF-8 Plain Text
    Duration                    : 2 h 7 min
    Bit rate                    : 29 b/s
    Count of elements           : 1075
    Stream size                 : 27.3 KiB (0%)
    Title                       : Español latino [CinemaniaHDD]
    Language                    : Spanish
    Default                     : No
    Forced                      : No

    Menu
    00:00:00.000                : :Chapter 1
    00:04:19.843                : :Chapter 2
    00:07:48.927                : :Chapter 3
    00:11:47.916                : :Chapter 4
    00:16:56.349                : :Chapter 5
    00:22:10.663                : :Chapter 6
    00:29:00.614                : :Chapter 7
    00:33:25.754                : :Chapter 8
    00:41:35.493                : :Chapter 9
    00:47:02.695                : :Chapter 10
    00:53:08.936                : :Chapter 11
    00:57:56.807                : :Chapter 12
    01:05:02.816                : :Chapter 13
    01:13:07.967                : :Chapter 14
    01:20:45.632                : :Chapter 15
    01:27:29.745                : :Chapter 16
    01:32:48.772                : :Chapter 17
    01:41:45.933                : :Chapter 18
    01:49:35.319                : :Chapter 19
    01:57:58.655                : :Chapter 20

     

  • Peso: 4.09 GiB

Sinopsis

Décadas después de que Sarah Connor (Linda Hamilton) impidiera el Día del Juicio, se envía un nuevo Terminator letal para eliminar al futuro líder de la resistencia. En una lucha para salvar a la humanidad, Sarah Connor, endurecida por la batalla, se une con un aliado inesperado (Arnold Schwarzenegger) y un súper soldado mejorado para detener al Terminator más mortal hasta el momento. El destino de la humanidad pende de un hilo en este emocionante viaje lleno de acción de Tim Miller, el Director de Deadpool y el Productor James Cameron.

Ficha técnica

Video trailer de la película

Enlaces de descarga

Rip de Bluray

Descargar Terminator: Dark Fate (2019) 1080p Latino




Aportes de DPeliculasHDmega la pass es:dpeliculashdmega.org Aportes de CinemaniaHD la pass es:cinemaniahdd.com Aportes recientes:cinemaniahdd.net
Guardado en : Acción , Ciencia ficción , HD 1080p

Películas relacionadas

descargar Terminator: Dark Fate (2019) 1080p Latino 1080p 1080p gratis, Terminator: Dark Fate (2019) 1080p Latino 1080p mega 1 link, Terminator: Dark Fate (2019) 1080p Latino 1080p pelicula completa, descargar Terminator: Dark Fate (2019) 1080p Latino 1080p gratis en mega.

Terminator: Dark Fate (2019) 1080p Latino pelicula full hd, Terminator: Dark Fate (2019) 1080p Latino mega latino, Terminator: Dark Fate (2019) 1080p Latino 4k latino, Terminator: Dark Fate (2019) 1080p Latino pelicula completa, Terminator: Dark Fate (2019) 1080p Latino descargar gratis, descargar Terminator: Dark Fate (2019) 1080p Latino pelicula latino, Terminator: Dark Fate (2019) 1080p Latino 1 link mega, Terminator: Dark Fate (2019) 1080p Latino 1 link google drive, Terminator: Dark Fate (2019) 1080p Latino hd 1080p latino.
Comentarios 2