×

¿Problemas para descargar con Mozilla, EDGE? Deshabilita la opción "Abrir vinculos en una pestaña nueva" tal como lo muestra ésta imagen.

Terminator: Dark Fate (2019) REMUX 1080p Latino

1.669 vistas

Información de Terminator: Dark Fate (2019) REMUX 1080p Latino

Datos de la película

  • Calidad: Full 1080p
  • Audio: Se especifica abajo de la Sinopsis
  • Subtitulos: Español Latino PGS - Ingles PGS
  • Resolución: 1920x1080p
  • Formato: MKV
  • Codec: H.264
  • Encoder: CinefiloCool
  • Mediainfo: Clic para Mostrar Datos Ver
  • Terminator - Dark Fate (2019) REMUX 1080p Latino-CMHDD.mkv
    Format                      : Matroska
    Format version              : Version 4
    File size                   : 31.8 GiB
    Duration                    : 2 h 8 min
    Overall bit rate mode       : Variable
    Overall bit rate            : 35.6 Mb/s
    Movie name                  : CinemaniaHDD.Net
    Encoded date                : UTC 2020-01-18 05:12:04
    Writing application         : mkvmerge v38.0.0 ('The Silent Type') 64-bit
    Writing library             : libebml v1.3.9 + libmatroska v1.5.2
    Attachments                 : CINEMANIAHD.png

    Video
    ID                          : 1
    Format                      : AVC
    Format/Info                 : Advanced Video Codec
    Format profile              : High@L4.1
    Format settings             : CABAC / 4 Ref Frames
    Format settings, CABAC      : Yes
    Format settings, ReFrames   : 4 frames
    Codec ID                    : V_MPEG4/ISO/AVC
    Duration                    : 2 h 8 min
    Bit rate mode               : Variable
    Bit rate                    : 28.7 Mb/s
    Maximum bit rate            : 33.3 Mb/s
    Width                       : 1 920 pixels
    Height                      : 1 080 pixels
    Display aspect ratio        : 16:9
    Frame rate mode             : Constant
    Frame rate                  : 23.976 (24000/1001) FPS
    Color space                 : YUV
    Chroma subsampling          : 4:2:0
    Bit depth                   : 8 bits
    Scan type                   : Progressive
    Bits/(Pixel*Frame)          : 0.578
    Stream size                 : 25.7 GiB (81%)
    Title                       : Full HD1080p [REMUX]
    Default                     : Yes
    Forced                      : Yes

    Audio #1
    ID                          : 2
    Format                      : AC-3
    Format/Info                 : Audio Coding 3
    Commercial name             : Dolby Digital
    Codec ID                    : A_AC3
    Duration                    : 2 h 8 min
    Bit rate mode               : Constant
    Bit rate                    : 640 kb/s
    Channel(s)                  : 6 channels
    Channel layout              : L R C LFE Ls Rs
    Sampling rate               : 48.0 kHz
    Frame rate                  : 31.250 FPS (1536 SPF)
    Bit depth                   : 16 bits
    Compression mode            : Lossy
    Delay relative to video     : 23 ms
    Stream size                 : 586 MiB (2%)
    Title                       : AC3_5.1_Bluray_Esp
    Language                    : Spanish
    Service kind                : Complete Main
    Default                     : Yes
    Forced                      : Yes

    Audio #2
    ID                          : 3
    Format                      : MLP FBA 16-ch
    Format/Info                 : Meridian Lossless Packing FBA with 16-channel presentation
    Commercial name             : Dolby TrueHD with Dolby Atmos
    Codec ID                    : A_TRUEHD
    Duration                    : 2 h 8 min
    Bit rate mode               : Variable
    Bit rate                    : 4 634 kb/s
    Maximum bit rate            : 8 247 kb/s
    Channel(s)                  : 8 channels
    Channel layout              : L R C LFE Ls Rs Lb Rb
    Sampling rate               : 48.0 kHz
    Frame rate                  : 1 200.000 FPS (40 SPF)
    Compression mode            : Lossless
    Stream size                 : 4.15 GiB (13%)
    Title                       : THD_7.1_Bluray_Eng
    Language                    : English
    Default                     : No
    Forced                      : No
    Number of dynamic objects   : 11
    Bed channel count           : 1 channel
    Bed channel configuration   : LFE

    Audio #3
    ID                          : 4
    Format                      : DTS
    Format/Info                 : Digital Theater Systems
    Codec ID                    : A_DTS
    Duration                    : 2 h 8 min
    Bit rate mode               : Constant
    Bit rate                    : 1 509 kb/s
    Channel(s)                  : 6 channels
    Channel layout              : C L R Ls Rs LFE
    Sampling rate               : 48.0 kHz
    Frame rate                  : 93.750 FPS (512 SPF)
    Bit depth                   : 24 bits
    Compression mode            : Lossy
    Delay relative to video     : -9 ms
    Stream size                 : 1.35 GiB (4%)
    Title                       : DTS_5.1_Bluray_Eng
    Language                    : English
    Default                     : No
    Forced                      : No

    Text #1
    ID                          : 5
    Format                      : PGS
    Muxing mode                 : zlib
    Codec ID                    : S_HDMV/PGS
    Codec ID/Info               : Picture based subtitle format used on BDs/HD-DVDs
    Duration                    : 2 h 5 min
    Bit rate                    : 316 b/s
    Count of elements           : 28
    Stream size                 : 290 KiB (0%)
    Title                       : Sub_Forzados [PGS]
    Language                    : Spanish
    Default                     : Yes
    Forced                      : Yes

    Text #2
    ID                          : 6
    Format                      : PGS
    Muxing mode                 : zlib
    Codec ID                    : S_HDMV/PGS
    Codec ID/Info               : Picture based subtitle format used on BDs/HD-DVDs
    Duration                    : 2 h 7 min
    Bit rate                    : 18.3 kb/s
    Count of elements           : 2150
    Stream size                 : 16.7 MiB (0%)
    Title                       : Sub_Esp [PGS]
    Language                    : Spanish
    Default                     : No
    Forced                      : No

    Text #3
    ID                          : 7
    Format                      : PGS
    Muxing mode                 : zlib
    Codec ID                    : S_HDMV/PGS
    Codec ID/Info               : Picture based subtitle format used on BDs/HD-DVDs
    Duration                    : 1 h 57 min
    Bit rate                    : 20.1 kb/s
    Count of elements           : 2100
    Stream size                 : 16.9 MiB (0%)
    Title                       : Sub_Eng [PGS]
    Language                    : English
    Default                     : No
    Forced                      : No

    Text #4
    ID                          : 8
    Format                      : UTF-8
    Codec ID                    : S_TEXT/UTF8
    Codec ID/Info               : UTF-8 Plain Text
    Duration                    : 1 h 52 min
    Bit rate                    : 0 b/s
    Count of elements           : 12
    Stream size                 : 355 Bytes (0%)
    Title                       : Sub_Forzados
    Language                    : Spanish
    Default                     : No
    Forced                      : No

    Text #5
    ID                          : 9
    Format                      : UTF-8
    Codec ID                    : S_TEXT/UTF8
    Codec ID/Info               : UTF-8 Plain Text
    Duration                    : 1 h 57 min
    Bit rate                    : 31 b/s
    Count of elements           : 1073
    Stream size                 : 27.2 KiB (0%)
    Title                       : Sub_Esp
    Language                    : Spanish
    Default                     : No
    Forced                      : No

    Menu
    00:00:00.000                : :Chapter 01
    00:04:19.842                : :Chapter 02
    00:07:48.926                : :Chapter 03
    00:11:47.915                : :Chapter 04
    00:16:56.348                : :Chapter 05
    00:22:10.662                : :Chapter 06
    00:29:00.613                : :Chapter 07
    00:33:25.753                : :Chapter 08
    00:41:35.493                : :Chapter 09
    00:47:02.694                : :Chapter 10
    00:53:08.935                : :Chapter 11
    00:57:56.806                : :Chapter 12
    01:05:02.690                : :Chapter 13
    01:13:07.966                : :Chapter 14
    01:20:45.590                : :Chapter 15
    01:27:29.744                : :Chapter 16
    01:32:48.688                : :Chapter 17
    01:41:45.849                : :Chapter 18
    01:49:35.318                : :Chapter 19
    01:57:58.613                : :Chapter 20

  • Peso: 31.8 GiB

Sinopsis

Descargar Terminator: Dark Fate (2019) REMUX 1080p Latino. Sarah Connor y el Terminator T-800 regresan con sus icónicas interpretaciones en Terminator: Destino Oculto, La película sirve como una secuela a Terminator 2, dejando de lado todo lo sucedido de la tercera a la quinta parte. De ser el caso, Terminator 6: Destino ocuto iniciaría tomando en cuenta los siguientes hechos: el T-1000 ha sido destruido, también el T-800 que se sacrificó por la humanidad. Sarah Connor y su hijo John están vivos y el Día del Juicio, quizás, pueda ser evitado. Se cree que a partir de un pedazo del T-800 el Terminator será “resucitado” por Sarah para ayudarles a sobrevivir de una nueva amenaza

Audio Español Latino AC3 5.1 Bluray – Ingles TrueHD 7.1 + DTS 5.1 Bluray

Ficha técnica

Video trailer de la película

Enlaces de descarga

Rip de Bluray

Descargar Terminator: Dark Fate (2019) REMUX 1080p Latino




Aportes de DPeliculasHDmega la pass es:dpeliculashdmega.org Aportes de CinemaniaHD la pass es:cinemaniahdd.com
Guardado en : Acción , Ciencia ficción , Remux

Películas relacionadas

  • Zola (2020) REMUX 1080p Latino

    Zola (2020) REMUX 1080p Latino

    2020
    Zola (2020) REMUX 1080p Latino

    1h 26m 2020

    Descargar Zola (2020) REMUX 1080p Latino. Una camarera accede a acompañar a una bailarina exótica,...

    Director: Sheri Davani

    Género: Comedia

    Actores: Ts Madison

  • Hocus Pocus: Abracadabra (1993) REMUX 1080p Latino

    Hocus Pocus: Abracadabra (1993) REMUX 1080p Latino

    1993
    Hocus Pocus: Abracadabra (1993) REMUX 1080p Latino

    1h 36m 1993

    Descargar Hocus Pocus: Abracadabra (1993) REMUX 1080p Latino. Tres brujas del siglo XII son invocadas...

    Director: Kenny Ortega

    Género: Comedia

    Actores: Vinessa Shaw

  • DC Liga De Supermascotas (2022) HD 1080p Latino

    DC Liga De Supermascotas (2022) HD 1080p Latino

    2022
    DC Liga De Supermascotas (2022) HD 1080p Latino

    1h 45m 2022

    Descargar DC Liga De Supermascotas (2022) HD 1080p Latino. Krypto el Superperro y Superman son amigos...

    Director: Sam Levine

    Género: Acción

    Actores: Yvette Nicole Brown

  • Tremors (1990) REMUX 4K HDR Latino – CMHDD

    Tremors (1990) REMUX 4K HDR Latino – CMHDD

    1990
    Tremors (1990) REMUX 4K HDR Latino – CMHDD

    1h 35m 1990

    En Perfección, un pequeño pueblo al borde del desierto de Nevada, algo parece suceder debajo de la...

    Director: Susan Bierbaum

    Género: Acción

    Actores: Victor Wong

descargar Terminator: Dark Fate (2019) REMUX 1080p Latino Full 1080p 1080p gratis, Terminator: Dark Fate (2019) REMUX 1080p Latino Full 1080p mega 1 link, Terminator: Dark Fate (2019) REMUX 1080p Latino Full 1080p pelicula completa, descargar Terminator: Dark Fate (2019) REMUX 1080p Latino Full 1080p gratis en mega.

Terminator: Dark Fate (2019) REMUX 1080p Latino pelicula full hd, Terminator: Dark Fate (2019) REMUX 1080p Latino mega latino, Terminator: Dark Fate (2019) REMUX 1080p Latino 4k latino, Terminator: Dark Fate (2019) REMUX 1080p Latino pelicula completa, Terminator: Dark Fate (2019) REMUX 1080p Latino descargar gratis, descargar Terminator: Dark Fate (2019) REMUX 1080p Latino pelicula latino, Terminator: Dark Fate (2019) REMUX 1080p Latino 1 link mega, Terminator: Dark Fate (2019) REMUX 1080p Latino 1 link google drive, Terminator: Dark Fate (2019) REMUX 1080p Latino hd 1080p latino.
Comentarios 0