×

¿Problemas para descargar con Mozilla, EDGE? Deshabilita la opción "Abrir vinculos en una pestaña nueva" tal como lo muestra ésta imagen.

Terminator: Dark Fate (2019) Full HD 1080p Latino

8.609 vistas

Información de Terminator: Dark Fate (2019) Full HD 1080p Latino

Datos de la película

  • Calidad: Full 1080p
  • Audio: Español Latino AC3 5.1 BLURAY - Ingles DTS 5.1 BLURAY
  • Subtitulos: Español Latino PGS - Ingles PGS
  • Resolución: 1920x1080p
  • Formato: MKV
  • Codec: H.264
  • Encoder: CinefiloCool
  • Mediainfo: Clic para Mostrar Datos Ver
  • Terminator - Dark Fate (2019) Full HD 1080p Latino-CMHDD.mkv
    Format                      : Matroska
    Format version              : Version 4
    File size                   : 8.08 GiB
    Duration                    : 2 h 8 min
    Overall bit rate            : 9 028 kb/s
    Movie name                  : CinemaniaHDD.Net
    Encoded date                : UTC 2020-01-18 05:23:08
    Writing application         : mkvmerge v38.0.0 ('The Silent Type') 64-bit
    Writing library             : libebml v1.3.9 + libmatroska v1.5.2
    Attachments                 : CINEMANIAHD.png

    Video
    ID                          : 1
    Format                      : AVC
    Format/Info                 : Advanced Video Codec
    Format profile              : High@L4.1
    Format settings             : CABAC / 4 Ref Frames
    Format settings, CABAC      : Yes
    Format settings, ReFrames   : 4 frames
    Codec ID                    : V_MPEG4/ISO/AVC
    Duration                    : 2 h 8 min
    Bit rate                    : 6 864 kb/s
    Width                       : 1 920 pixels
    Height                      : 1 080 pixels
    Display aspect ratio        : 16:9
    Frame rate mode             : Constant
    Frame rate                  : 23.976 (24000/1001) FPS
    Color space                 : YUV
    Chroma subsampling          : 4:2:0
    Bit depth                   : 8 bits
    Scan type                   : Progressive
    Bits/(Pixel*Frame)          : 0.138
    Stream size                 : 6.14 GiB (76%)
    Title                       : Full HD1080p [Bluray]
    Writing library             : x264 core 157 r2935 545de2f
    Encoding settings           : cabac=1 / ref=4 / deblock=1:0:0 / analyse=0x3:0x133 / me=tesa / subme=11 / psy=1 / psy_rd=1.00:0.00 / mixed_ref=1 / me_range=24 / chroma_me=1 / trellis=2 / 8x8dct=1 / cqm=0 / deadzone=21,11 / fast_pskip=0 / chroma_qp_offset=-2 / threads=34 / lookahead_threads=8 / sliced_threads=0 / nr=0 / decimate=1 / interlaced=0 / bluray_compat=0 / constrained_intra=0 / bframes=16 / b_pyramid=2 / b_adapt=2 / b_bias=0 / direct=3 / weightb=1 / open_gop=0 / weightp=2 / keyint=240 / keyint_min=24 / scenecut=40 / intra_refresh=0 / rc_lookahead=60 / rc=crf / mbtree=1 / crf=19.0 / qcomp=0.60 / qpmin=0 / qpmax=69 / qpstep=4 / vbv_maxrate=62500 / vbv_bufsize=78125 / crf_max=0.0 / nal_hrd=none / filler=0 / ip_ratio=1.40 / aq=1:1.00
    Default                     : Yes
    Forced                      : Yes
    Color range                 : Limited
    Color primaries             : BT.709
    Transfer characteristics    : BT.709
    Matrix coefficients         : BT.709

    Audio #1
    ID                          : 2
    Format                      : AC-3
    Format/Info                 : Audio Coding 3
    Commercial name             : Dolby Digital
    Codec ID                    : A_AC3
    Duration                    : 2 h 8 min
    Bit rate mode               : Constant
    Bit rate                    : 640 kb/s
    Channel(s)                  : 6 channels
    Channel layout              : L R C LFE Ls Rs
    Sampling rate               : 48.0 kHz
    Frame rate                  : 31.250 FPS (1536 SPF)
    Bit depth                   : 16 bits
    Compression mode            : Lossy
    Delay relative to video     : 23 ms
    Stream size                 : 586 MiB (7%)
    Title                       : AC3_5.1_Bluray_Esp
    Language                    : Spanish
    Service kind                : Complete Main
    Default                     : Yes
    Forced                      : Yes

    Audio #2
    ID                          : 3
    Format                      : DTS
    Format/Info                 : Digital Theater Systems
    Codec ID                    : A_DTS
    Duration                    : 2 h 8 min
    Bit rate mode               : Constant
    Bit rate                    : 1 509 kb/s
    Channel(s)                  : 6 channels
    Channel layout              : C L R Ls Rs LFE
    Sampling rate               : 48.0 kHz
    Frame rate                  : 93.750 FPS (512 SPF)
    Bit depth                   : 24 bits
    Compression mode            : Lossy
    Stream size                 : 1.35 GiB (17%)
    Title                       : DTS_5.1_Bluray_Eng
    Language                    : English
    Default                     : No
    Forced                      : No

    Text #1
    ID                          : 4
    Format                      : PGS
    Muxing mode                 : zlib
    Codec ID                    : S_HDMV/PGS
    Codec ID/Info               : Picture based subtitle format used on BDs/HD-DVDs
    Duration                    : 2 h 5 min
    Bit rate                    : 416 b/s
    Count of elements           : 30
    Stream size                 : 382 KiB (0%)
    Title                       : Sub_Forzados [PGS]
    Language                    : Spanish
    Default                     : Yes
    Forced                      : Yes

    Text #2
    ID                          : 5
    Format                      : PGS
    Muxing mode                 : zlib
    Codec ID                    : S_HDMV/PGS
    Codec ID/Info               : Picture based subtitle format used on BDs/HD-DVDs
    Duration                    : 2 h 7 min
    Bit rate                    : 18.3 kb/s
    Count of elements           : 2150
    Stream size                 : 16.7 MiB (0%)
    Title                       : Sub_Esp [PGS]
    Language                    : Spanish
    Default                     : No
    Forced                      : No

    Text #3
    ID                          : 6
    Format                      : PGS
    Muxing mode                 : zlib
    Codec ID                    : S_HDMV/PGS
    Codec ID/Info               : Picture based subtitle format used on BDs/HD-DVDs
    Duration                    : 1 h 57 min
    Bit rate                    : 20.1 kb/s
    Count of elements           : 2100
    Stream size                 : 16.9 MiB (0%)
    Title                       : Sub_Eng [PGS]
    Language                    : English
    Default                     : No
    Forced                      : No

    Text #4
    ID                          : 7
    Format                      : UTF-8
    Codec ID                    : S_TEXT/UTF8
    Codec ID/Info               : UTF-8 Plain Text
    Duration                    : 1 h 52 min
    Bit rate                    : 0 b/s
    Count of elements           : 12
    Stream size                 : 355 Bytes (0%)
    Title                       : Sub_Forzados
    Language                    : Spanish
    Default                     : No
    Forced                      : No

    Text #5
    ID                          : 8
    Format                      : UTF-8
    Codec ID                    : S_TEXT/UTF8
    Codec ID/Info               : UTF-8 Plain Text
    Duration                    : 1 h 57 min
    Bit rate                    : 31 b/s
    Count of elements           : 1073
    Stream size                 : 27.2 KiB (0%)
    Title                       : Sub_Esp
    Language                    : Spanish
    Default                     : No
    Forced                      : No

    Menu
    00:00:00.000                : :Chapter 1
    00:04:19.843                : :Chapter 2
    00:07:48.927                : :Chapter 3
    00:11:47.916                : :Chapter 4
    00:16:56.349                : :Chapter 5
    00:22:10.663                : :Chapter 6
    00:29:00.614                : :Chapter 7
    00:33:25.754                : :Chapter 8
    00:41:35.493                : :Chapter 9
    00:47:02.695                : :Chapter 10
    00:53:08.936                : :Chapter 11
    00:57:56.807                : :Chapter 12
    01:05:02.816                : :Chapter 13
    01:13:07.967                : :Chapter 14
    01:20:45.632                : :Chapter 15
    01:27:29.745                : :Chapter 16
    01:32:48.772                : :Chapter 17
    01:41:45.933                : :Chapter 18
    01:49:35.319                : :Chapter 19
    01:57:58.655                : :Chapter 20

  • Peso: 8.08 GiB

Sinopsis

Descargar Terminator: Dark Fate (2019) Full HD 1080p Latino. Sarah Connor y el Terminator T-800 regresan con sus icónicas interpretaciones en Terminator: Destino Oculto, La película sirve como una secuela a Terminator 2, dejando de lado todo lo sucedido de la tercera a la quinta parte. De ser el caso, Terminator 6: Destino ocuto iniciaría tomando en cuenta los siguientes hechos: el T-1000 ha sido destruido, también el T-800 que se sacrificó por la humanidad. Sarah Connor y su hijo John están vivos y el Día del Juicio, quizás, pueda ser evitado. Se cree que a partir de un pedazo del T-800 el Terminator será “resucitado” por Sarah para ayudarles a sobrevivir de una nueva amenaza

Ficha técnica

Video trailer de la película

Enlaces de descarga

Rip de Bluray

Descargar Terminator: Dark Fate (2019) Full HD 1080p Latino




Aportes de DPeliculasHDmega la pass es:dpeliculashdmega.org Aportes de CinemaniaHD la pass es:cinemaniahdd.com Aportes recientes:cinemaniahdd.net

Películas relacionadas

  • Scream VI (2023) PLACEBO Full HD 1080p Latino

    Scream VI (2023) PLACEBO Full HD 1080p Latino

    2023
    Scream VI (2023) PLACEBO Full HD 1080p Latino

    2h 3m 2023

    Descargar Scream VI (2023) PLACEBO Full HD 1080p Latino. Sam, Tara, Mindy y Chad quieren tener una vida...

    Director: Tyler Gillett

    Género: FULL 1080p Plateadas

    Actores: Tony Revolori

  • Scream (2022) PLACEBO Full HD 1080p Latino

    Scream (2022) PLACEBO Full HD 1080p Latino

    2022
    Scream (2022) PLACEBO Full HD 1080p Latino

    2h 0m 2022

    Descargar Scream (2022) PLACEBO Full HD 1080p Latino. Una nueva entrega de la saga de terror 'Scream'...

    Director: Tyler Gillett

    Género: FULL 1080p Plateadas

    Actores: Stephen West-Rogers

  • Scream 4 (2011) Full HD 1080p Latino

    Scream 4 (2011) Full HD 1080p Latino

    2011
    Scream 4 (2011) Full HD 1080p Latino

    1h 51m 2011

    Decargar Scream 4 (2011) Full HD 1080p Latino. Sidney Prescott ha logrado olvidar los asesinatos cometidos...

    Director: Wes Craven

    Género: FULL 1080p Plateadas

    Actores: William Spencer

  • Scream 3 (2000) Full HD 1080p Latino

    Scream 3 (2000) Full HD 1080p Latino

    2000
    Scream 3 (2000) Full HD 1080p Latino

    1h 56m 2000

    Descargar Scream 3 (2000) Full HD 1080p Latino. Después de los terroríficos acontecimientos que tuvieron...

    Director: Wes Craven

    Género: FULL 1080p Plateadas

    Actores: Wes Craven

descargar Terminator: Dark Fate (2019) Full HD 1080p Latino Full 1080p 1080p gratis, Terminator: Dark Fate (2019) Full HD 1080p Latino Full 1080p mega 1 link, Terminator: Dark Fate (2019) Full HD 1080p Latino Full 1080p pelicula completa, descargar Terminator: Dark Fate (2019) Full HD 1080p Latino Full 1080p gratis en mega.

Terminator: Dark Fate (2019) Full HD 1080p Latino pelicula full hd, Terminator: Dark Fate (2019) Full HD 1080p Latino mega latino, Terminator: Dark Fate (2019) Full HD 1080p Latino 4k latino, Terminator: Dark Fate (2019) Full HD 1080p Latino pelicula completa, Terminator: Dark Fate (2019) Full HD 1080p Latino descargar gratis, descargar Terminator: Dark Fate (2019) Full HD 1080p Latino pelicula latino, Terminator: Dark Fate (2019) Full HD 1080p Latino 1 link mega, Terminator: Dark Fate (2019) Full HD 1080p Latino 1 link google drive, Terminator: Dark Fate (2019) Full HD 1080p Latino hd 1080p latino.
Comentarios 0