×

¿Problemas para descargar con Mozilla, EDGE? Deshabilita la opción "Abrir vinculos en una pestaña nueva" tal como lo muestra ésta imagen.

Terminator 3 Rise of the Machines (2003) REMUX 1080p Latino – CMHDD

219 vistas

Información de Terminator 3 Rise of the Machines (2003) REMUX 1080p Latino – CMHDD

Datos de la película

  • Calidad: Full 1080p
  • Audio: Español Latino AC3 5.1 BLURAY - Ingles AC3 5.1 BLURAY
  • Subtitulos: Español Latino PGS
  • Resolución: 19201080p
  • Formato: MKV
  • Codec: H.264
  • Encoder: Dracarys
  • Mediainfo: Clic para Mostrar Datos Ver
  • Format                      : Matroska
    Format version              : Version 4
    File size                   : 22.8 GiB
    Duration                    : 1 h 49 min
    Overall bit rate mode       : Variable
    Overall bit rate            : 29.9 Mb/s
    Movie name                  : Terminator 3 Rise of the Machines (2003) REMUX 1080p Latino - CMHDD
    Encoded date                : UTC 2023-10-13 03:08:26
    Writing application         : mkvmerge v47.0.0 ('Black Flag') 64-bit
    Writing library             : libebml v1.3.10 + libmatroska v1.5.2

    Video
    ID                          : 1
    Format                      : AVC
    Format/Info                 : Advanced Video Codec
    Format profile              : High@L4.1
    Format settings             : CABAC / 4 Ref Frames
    Format settings, CABAC      : Yes
    Format settings, Reference  : 4 frames
    Codec ID                    : V_MPEG4/ISO/AVC
    Duration                    : 1 h 49 min
    Bit rate mode               : Variable
    Bit rate                    : 26.7 Mb/s
    Maximum bit rate            : 28.5 Mb/s
    Width                       : 1 920 pixels
    Height                      : 1 080 pixels
    Display aspect ratio        : 16:9
    Frame rate mode             : Constant
    Frame rate                  : 23.976 (24000/1001) FPS
    Color space                 : YUV
    Chroma subsampling          : 4:2:0
    Bit depth                   : 8 bits
    Scan type                   : Progressive
    Bits/(Pixel*Frame)          : 0.537
    Stream size                 : 20.3 GiB (89%)
    Default                     : Yes
    Forced                      : No
    Color range                 : Limited
    Color primaries             : BT.709
    Transfer characteristics    : BT.709
    Matrix coefficients         : BT.709

    Audio #1
    ID                          : 2
    Format                      : MLP FBA
    Format/Info                 : Meridian Lossless Packing FBA
    Commercial name             : Dolby TrueHD
    Codec ID                    : A_TRUEHD
    Duration                    : 1 h 49 min
    Bit rate mode               : Variable
    Bit rate                    : 1 831 kb/s
    Maximum bit rate            : 3 564 kb/s
    Channel(s)                  : 6 channels
    Channel layout              : L R C LFE Ls Rs
    Sampling rate               : 48.0 kHz
    Frame rate                  : 1 200.000 FPS (40 SPF)
    Compression mode            : Lossless
    Stream size                 : 1.40 GiB (6%)
    Language                    : English
    Default                     : No
    Forced                      : No

    Audio #2
    ID                          : 3
    Format                      : AC-3
    Format/Info                 : Audio Coding 3
    Commercial name             : Dolby Digital
    Codec ID                    : A_AC3
    Duration                    : 1 h 49 min
    Bit rate mode               : Constant
    Bit rate                    : 640 kb/s
    Channel(s)                  : 6 channels
    Channel layout              : L R C LFE Ls Rs
    Sampling rate               : 48.0 kHz
    Frame rate                  : 31.250 FPS (1536 SPF)
    Compression mode            : Lossy
    Stream size                 : 499 MiB (2%)
    Language                    : English
    Service kind                : Complete Main
    Default                     : No
    Forced                      : No

    Audio #3
    ID                          : 4
    Format                      : AC-3
    Format/Info                 : Audio Coding 3
    Commercial name             : Dolby Digital
    Codec ID                    : A_AC3
    Duration                    : 1 h 49 min
    Bit rate mode               : Constant
    Bit rate                    : 640 kb/s
    Channel(s)                  : 6 channels
    Channel layout              : L R C LFE Ls Rs
    Sampling rate               : 48.0 kHz
    Frame rate                  : 31.250 FPS (1536 SPF)
    Compression mode            : Lossy
    Stream size                 : 500 MiB (2%)
    Language                    : Spanish
    Service kind                : Complete Main
    Default                     : Yes
    Forced                      : No

    Text
    ID                          : 5
    Format                      : PGS
    Muxing mode                 : zlib
    Codec ID                    : S_HDMV/PGS
    Codec ID/Info               : Picture based subtitle format used on BDs/HD-DVDs
    Duration                    : 1 h 48 min
    Bit rate                    : 16.6 kb/s
    Frame rate                  : 0.234 FPS
    Count of elements           : 1532
    Stream size                 : 12.9 MiB (0%)
    Language                    : Spanish
    Default                     : No
    Forced                      : No

     

  • Peso: 22.8 GiB

Sinopsis

Ha pasado una década desde que John Connor salvara a la humanidad de la destrucción. En la actualidad John tiene 25 años y vive en la clandestinidad: no hay ninguna prueba documental de su existencia. Así evita ser rastreado por Skynet, la sofisticada corporación de máquinas que una vez intentó acabar con su vida. Pero, ahora, desde el futuro, ha sido enviado el T-X, la máquina destructora cyborg más desarrollada de Skynet. Su misión es completar el trabajo que no pudo terminar su predecesor, el T-1000. El T-X es una máquina tan implacable como bello su aspecto humano. Ahora la única esperanza de sobrevivir para Connnor es Terminator.

Ficha técnica

Video trailer de la película

Enlaces de descarga

Rip de Bluray

Descargar Terminator 3 Rise of the Machines (2003) REMUX 1080p Latino – CMHDD




Aportes de DPeliculasHDmega la pass es:dpeliculashdmega.org Aportes de CinemaniaHD la pass es:cinemaniahdd.com Aportes recientes:cinemaniahdd.net
Guardado en : Acción , Ciencia ficción , Suspenso

Películas relacionadas

  • Vanished Into the Night (2024) NF WEB-DL 1080p Latino

    Vanished Into the Night (2024) NF WEB-DL 1080p Latino

    2024
    Vanished Into the Night (2024) NF WEB-DL 1080p Latino

    1h 33m 2024

    Descargar Vanished Into the Night (2024) NF WEB-DL 1080p Latino. Un padre inmerso en un divorcio problemático...

    Director: Renato De Maria

    Género: Drama

    Actores: Riccardo Scamarcio

  • Inmaculada (2024) HD 1080p Latino

    Inmaculada (2024) HD 1080p Latino

    2024
    Inmaculada (2024) HD 1080p Latino

    1h 29m 2024

    Descargar Inmaculada (2024) HD 1080p Latino. Cecilia, una mujer de fe devota, recibe una calurosa bienvenida...

    Director: Valentina Scuro

    Género: HD 1080p

    Actores: Viviane Florentine Nicolai

  • Inmaculada (2024) PLACEBO Full HD 1080p Latino

    Inmaculada (2024) PLACEBO Full HD 1080p Latino

    2024
    Inmaculada (2024) PLACEBO Full HD 1080p Latino

    1h 29m 2024

    Descargar Inmaculada (2024) PLACEBO Full HD 1080p Latino. Cecilia, una mujer de fe devota, recibe una...

    Director: Valentina Scuro

    Género: FULL 1080p Plateadas

    Actores: Viviane Florentine Nicolai

  • Inmaculada (2024) REMUX 1080p Latino

    Inmaculada (2024) REMUX 1080p Latino

    2024
    Inmaculada (2024) REMUX 1080p Latino

    1h 29m 2024

    Descargar Inmaculada (2024) REMUX 1080p Latino. Cecilia, una mujer de fe devota, recibe una calurosa...

    Director: Valentina Scuro

    Género: Misterio

    Actores: Viviane Florentine Nicolai

descargar Terminator 3 Rise of the Machines (2003) REMUX 1080p Latino – CMHDD Full 1080p 1080p gratis, Terminator 3 Rise of the Machines (2003) REMUX 1080p Latino – CMHDD Full 1080p mega 1 link, Terminator 3 Rise of the Machines (2003) REMUX 1080p Latino – CMHDD Full 1080p pelicula completa, descargar Terminator 3 Rise of the Machines (2003) REMUX 1080p Latino – CMHDD Full 1080p gratis en mega.

Terminator 3 Rise of the Machines (2003) REMUX 1080p Latino – CMHDD pelicula full hd, Terminator 3 Rise of the Machines (2003) REMUX 1080p Latino – CMHDD mega latino, Terminator 3 Rise of the Machines (2003) REMUX 1080p Latino – CMHDD 4k latino, Terminator 3 Rise of the Machines (2003) REMUX 1080p Latino – CMHDD pelicula completa, Terminator 3 Rise of the Machines (2003) REMUX 1080p Latino – CMHDD descargar gratis, descargar Terminator 3 Rise of the Machines (2003) REMUX 1080p Latino – CMHDD pelicula latino, Terminator 3 Rise of the Machines (2003) REMUX 1080p Latino – CMHDD 1 link mega, Terminator 3 Rise of the Machines (2003) REMUX 1080p Latino – CMHDD 1 link google drive, Terminator 3 Rise of the Machines (2003) REMUX 1080p Latino – CMHDD hd 1080p latino.
Comentarios 0