Terminator 3: La rebelión de las máquinas (2003) 1080p Latino

697 vistas
1 estrella2 estrellas3 estrellas4 estrellas5 estrellas (1 votos, promedio: 5,00 de 5)
Cargando...

Información de Terminator 3: La rebelión de las máquinas (2003) 1080p Latino

Datos de la película

  • Calidad: 1080p
  • Audio: Español Latino AC3 5.1 BLURAY - Ingles AC3 5.1 BLURAY
  • Subtitulos: Español Latino SRT- FORZADOS SRT
  • Resolución: 1920x790p
  • Formato: MKV
  • Codec: H.264
  • Encoder: CinefiloCool
  • Mediainfo: Clic para Mostrar Datos Ver
  • Terminator 3 La Rebelion De Las Maquinas (2003) 1080p Latino-CMHDD.mkv
    Format                      : Matroska
    Format version              : Version 4
    File size                   : 3.50 GiB
    Duration                    : 1 h 49 min
    Overall bit rate            : 4 588 kb/s
    Movie name                  : CinemaniaHDD.net
    Encoded date                : UTC 2020-01-20 03:11:15
    Writing application         : mkvmerge v42.0.0 ('Overtime') 64-bit
    Writing library             : libebml v1.3.10 + libmatroska v1.5.2
    Attachments                 : CINEMANIAHD.png

    Video
    ID                          : 1
    Format                      : AVC
    Format/Info                 : Advanced Video Codec
    Format profile              : High@L4.1
    Format settings             : CABAC / 5 Ref Frames
    Format settings, CABAC      : Yes
    Format settings, ReFrames   : 5 frames
    Codec ID                    : V_MPEG4/ISO/AVC
    Duration                    : 1 h 49 min
    Bit rate                    : 3 500 kb/s
    Width                       : 1 920 pixels
    Height                      : 790 pixels
    Display aspect ratio        : 2.40:1
    Frame rate mode             : Constant
    Frame rate                  : 23.976 (24000/1001) FPS
    Color space                 : YUV
    Chroma subsampling          : 4:2:0
    Bit depth                   : 8 bits
    Scan type                   : Progressive
    Bits/(Pixel*Frame)          : 0.096
    Stream size                 : 2.67 GiB (76%)
    Title                       : HD1080p [Bluray]
    Writing library             : x264 core 157 r2935 545de2f
    Encoding settings           : cabac=1 / ref=5 / deblock=1:-2:-2 / analyse=0x3:0x133 / me=umh / subme=9 / psy=1 / psy_rd=1.00:0.25 / mixed_ref=1 / me_range=16 / chroma_me=1 / trellis=2 / 8x8dct=1 / cqm=0 / deadzone=6,6 / fast_pskip=1 / chroma_qp_offset=-4 / threads=25 / lookahead_threads=2 / sliced_threads=0 / nr=0 / decimate=0 / interlaced=0 / bluray_compat=0 / constrained_intra=0 / bframes=3 / b_pyramid=2 / b_adapt=2 / b_bias=0 / direct=3 / weightb=1 / open_gop=0 / weightp=2 / keyint=240 / keyint_min=24 / scenecut=40 / intra_refresh=0 / rc_lookahead=60 / rc=2pass / mbtree=1 / bitrate=3500 / ratetol=1.0 / qcomp=0.80 / qpmin=0 / qpmax=69 / qpstep=4 / cplxblur=20.0 / qblur=0.5 / vbv_maxrate=62500 / vbv_bufsize=78125 / nal_hrd=none / filler=0 / ip_ratio=1.10 / aq=1:0.50
    Default                     : Yes
    Forced                      : Yes
    Color range                 : Limited
    Color primaries             : BT.709
    Transfer characteristics    : BT.709
    Matrix coefficients         : BT.709

    Audio #1
    ID                          : 2
    Format                      : AC-3
    Format/Info                 : Audio Coding 3
    Commercial name             : Dolby Digital
    Codec ID                    : A_AC3
    Duration                    : 1 h 49 min
    Bit rate mode               : Constant
    Bit rate                    : 640 kb/s
    Channel(s)                  : 6 channels
    Channel layout              : L R C LFE Ls Rs
    Sampling rate               : 48.0 kHz
    Frame rate                  : 31.250 FPS (1536 SPF)
    Bit depth                   : 16 bits
    Compression mode            : Lossy
    Delay relative to video     : 6 s 550 ms
    Stream size                 : 499 MiB (14%)
    Title                       : AC3_5.1_Bluray_Esp
    Language                    : Spanish
    Service kind                : Complete Main
    Default                     : Yes
    Forced                      : Yes

    Audio #2
    ID                          : 3
    Format                      : AC-3
    Format/Info                 : Audio Coding 3
    Commercial name             : Dolby Digital
    Codec ID                    : A_AC3
    Duration                    : 1 h 49 min
    Bit rate mode               : Constant
    Bit rate                    : 448 kb/s
    Channel(s)                  : 6 channels
    Channel layout              : L R C LFE Ls Rs
    Sampling rate               : 48.0 kHz
    Frame rate                  : 31.250 FPS (1536 SPF)
    Bit depth                   : 16 bits
    Compression mode            : Lossy
    Delay relative to video     : -5 ms
    Stream size                 : 350 MiB (10%)
    Title                       : AC3_5.1_Bluray_Eng
    Language                    : English
    Service kind                : Complete Main
    Default                     : No
    Forced                      : No

    Text #1
    ID                          : 4
    Format                      : UTF-8
    Codec ID                    : S_TEXT/UTF8
    Codec ID/Info               : UTF-8 Plain Text
    Duration                    : 1 h 35 min
    Bit rate                    : 1 b/s
    Count of elements           : 43
    Stream size                 : 884 Bytes (0%)
    Title                       : Sub_Forzados
    Language                    : Spanish
    Default                     : Yes
    Forced                      : Yes

    Text #2
    ID                          : 5
    Format                      : UTF-8
    Codec ID                    : S_TEXT/UTF8
    Codec ID/Info               : UTF-8 Plain Text
    Duration                    : 1 h 40 min
    Bit rate                    : 34 b/s
    Count of elements           : 808
    Stream size                 : 25.1 KiB (0%)
    Title                       : Sub_Esp
    Language                    : Spanish
    Default                     : No
    Forced                      : No

    Menu
    00:00:00.000                : :Chapter 1
    00:03:36.633                : :Chapter 2
    00:05:42.551                : :Chapter 3
    00:09:12.135                : :Chapter 4
    00:11:24.309                : :Chapter 5
    00:16:18.936                : :Chapter 6
    00:20:21.929                : :Chapter 7
    00:22:57.459                : :Chapter 8
    00:26:15.574                : :Chapter 9
    00:29:32.104                : :Chapter 10
    00:32:27.779                : :Chapter 11
    00:35:15.030                : :Chapter 12
    00:38:15.126                : :Chapter 13
    00:42:17.076                : :Chapter 14
    00:43:49.418                : :Chapter 15
    00:48:27.822                : :Chapter 16
    00:51:47.730                : :Chapter 17
    00:53:56.275                : :Chapter 18
    00:57:35.744                : :Chapter 19
    01:00:07.187                : :Chapter 20
    01:05:47.861                : :Chapter 21
    01:08:33.276                : :Chapter 22
    01:10:48.870                : :Chapter 23
    01:13:57.516                : :Chapter 24
    01:18:25.784                : :Chapter 25
    01:21:15.245                : :Chapter 26
    01:24:50.085                : :Chapter 27
    01:28:58.542                : :Chapter 28
    01:31:36.992                : :Chapter 29
    01:33:42.408                : :Chapter 30
    01:35:41.486                : :Chapter 31
    01:39:03.354                : :Chapter 32
    01:41:49.979                : :Chapter 33

  • Peso: 3.50 GiB

Sinopsis

Descargar Terminator 3: La rebelión de las máquinas (2003) 1080p Latino. Ha pasado una década desde que John Connor -Nick Stahl- salvara a la humanidad de la destrucción. En la actualidad John tiene 25 años y vive en la clandestinidad: no hay ninguna prueba documental de su existencia. Así evita ser rastreado por Skynet -la sofisticada corporación de máquinas que una vez intentó acabar con su vida-. Pero, ahora, desde el futuro, ha sido enviado el T-X (Kristanna Loken), la máquina destructora cyborg más desarrollada de Skynet. Su misión es completar el trabajo que no pudo terminar su predecesor, el T-1000. El T-X es una máquina tan implacable como bello su aspecto humano. Ahora la única esperanza de sobrevivir para Connnor es Terminator.

Ficha técnica

Video trailer de la película

Enlaces de descarga

Rip de Bluray

Descargar Terminator 3: La rebelión de las máquinas (2003) 1080p Latino




Aportes de DPeliculasHDmega la pass es:dpeliculashdmega.org Aportes de CinemaniaHD la pass es:cinemaniahdd.com

Películas relacionadas

  • La chica de rosa (1986) 1080p Latino

    La chica de rosa (1986) 1080p Latino

    1986
    La chica de rosa (1986) 1080p Latino

    0.0 1h 36m 1986

    Descargar La chica de rosa (1986) 1080p Latino. Andie Walsh (Molly Ringwald), una buena estudiante de...

    Director: Pamela Alch

    Género: Comedia

    Actores: Molly Ringwald

  • Escucha tu destino (2007) 1080p Latino

    Escucha tu destino (2007) 1080p Latino

    2007
    Escucha tu destino (2007) 1080p Latino

    0.0 1h 53m 2007

    Descargar Escucha tu destino (2007) 1080p Latino. Un joven guitarrista irlandés (Jonathan Rhys Meyers)...

    Director: Kirsten Sheridan

    Género: Drama

    Actores: Zach Page

  • The Last Exorcism (2010) WEB-DL 1080p Latino

    The Last Exorcism (2010) WEB-DL 1080p Latino

    2010
    The Last Exorcism (2010) WEB-DL 1080p Latino

    5.0 1h 27m 2010

    Tras una carrera ayudando a los devotos a través de plegarias, el reverendo evangelista Cotton Marcus...

    Director: Daniel Stamm

    Género: Suspenso

    Actores: Tony Bentley

Terminator 3: La rebelión de las máquinas (2003) 1080p Latino pelicula full hd, Terminator 3: La rebelión de las máquinas (2003) 1080p Latino mega latino, Terminator 3: La rebelión de las máquinas (2003) 1080p Latino 4k latino, Terminator 3: La rebelión de las máquinas (2003) 1080p Latino pelicula completa, Terminator 3: La rebelión de las máquinas (2003) 1080p Latino descargar gratis, descargar Terminator 3: La rebelión de las máquinas (2003) 1080p Latino pelicula latino, Terminator 3: La rebelión de las máquinas (2003) 1080p Latino 1 link mega, Terminator 3: La rebelión de las máquinas (2003) 1080p Latino 1 link google drive, Terminator 3: La rebelión de las máquinas (2003) 1080p Latino hd 1080p latino.
Comentarios 0