×

¿Problemas para descargar con Mozilla, EDGE? Deshabilita la opción "Abrir vinculos en una pestaña nueva" tal como lo muestra ésta imagen.

Terminator Salvation (2009) 1080p Latino

852 vistas

Información de Terminator Salvation (2009) 1080p Latino

Datos de la película

  • Calidad: 1080p
  • Audio: Español Latino AC3 5.1 BLURAY - Ingles AC3 5.1 BLURAY
  • Subtitulos: Español Latino SRT- FORZADOS SRT
  • Resolución: 1920x800p
  • Formato: MKV
  • Codec: H.264
  • Encoder: CinefiloCool
  • Mediainfo: Clic para Mostrar Datos Ver
  • Terminator 4 La Salvacion (2009) 1080p Latino-CMHDD.mkv
    Format                      : Matroska
    Format version              : Version 4
    File size                   : 3.67 GiB
    Duration                    : 1 h 54 min
    Overall bit rate            : 4 588 kb/s
    Movie name                  : CinemaniaHDD.net
    Encoded date                : UTC 2020-01-20 03:42:54
    Writing application         : mkvmerge v42.0.0 ('Overtime') 64-bit
    Writing library             : libebml v1.3.10 + libmatroska v1.5.2
    Attachments                 : CINEMANIAHD.png

    Video
    ID                          : 1
    Format                      : AVC
    Format/Info                 : Advanced Video Codec
    Format profile              : High@L4.1
    Format settings             : CABAC / 5 Ref Frames
    Format settings, CABAC      : Yes
    Format settings, ReFrames   : 5 frames
    Codec ID                    : V_MPEG4/ISO/AVC
    Duration                    : 1 h 54 min
    Bit rate                    : 3 500 kb/s
    Width                       : 1 920 pixels
    Height                      : 800 pixels
    Display aspect ratio        : 2.40:1
    Frame rate mode             : Constant
    Frame rate                  : 23.976 (24000/1001) FPS
    Color space                 : YUV
    Chroma subsampling          : 4:2:0
    Bit depth                   : 8 bits
    Scan type                   : Progressive
    Bits/(Pixel*Frame)          : 0.095
    Stream size                 : 2.80 GiB (76%)
    Title                       : HD1080p [Bluray]
    Writing library             : x264 core 157 r2935 545de2f
    Encoding settings           : cabac=1 / ref=5 / deblock=1:-2:-2 / analyse=0x3:0x133 / me=umh / subme=9 / psy=1 / psy_rd=1.00:0.25 / mixed_ref=1 / me_range=16 / chroma_me=1 / trellis=2 / 8x8dct=1 / cqm=0 / deadzone=6,6 / fast_pskip=1 / chroma_qp_offset=-4 / threads=25 / lookahead_threads=2 / sliced_threads=0 / nr=0 / decimate=0 / interlaced=0 / bluray_compat=0 / constrained_intra=0 / bframes=3 / b_pyramid=2 / b_adapt=2 / b_bias=0 / direct=3 / weightb=1 / open_gop=0 / weightp=2 / keyint=240 / keyint_min=24 / scenecut=40 / intra_refresh=0 / rc_lookahead=60 / rc=2pass / mbtree=1 / bitrate=3500 / ratetol=1.0 / qcomp=0.80 / qpmin=0 / qpmax=69 / qpstep=4 / cplxblur=20.0 / qblur=0.5 / vbv_maxrate=62500 / vbv_bufsize=78125 / nal_hrd=none / filler=0 / ip_ratio=1.10 / aq=1:0.50
    Default                     : Yes
    Forced                      : Yes
    Color range                 : Limited
    Color primaries             : BT.709
    Transfer characteristics    : BT.709
    Matrix coefficients         : BT.709

    Audio #1
    ID                          : 2
    Format                      : AC-3
    Format/Info                 : Audio Coding 3
    Commercial name             : Dolby Digital
    Codec ID                    : A_AC3
    Duration                    : 1 h 54 min
    Bit rate mode               : Constant
    Bit rate                    : 640 kb/s
    Channel(s)                  : 6 channels
    Channel layout              : L R C LFE Ls Rs
    Sampling rate               : 48.0 kHz
    Frame rate                  : 31.250 FPS (1536 SPF)
    Bit depth                   : 16 bits
    Compression mode            : Lossy
    Stream size                 : 525 MiB (14%)
    Title                       : AC3_5.1_Bluray_Esp
    Language                    : Spanish
    Service kind                : Complete Main
    Default                     : Yes
    Forced                      : Yes

    Audio #2
    ID                          : 3
    Format                      : AC-3
    Format/Info                 : Audio Coding 3
    Commercial name             : Dolby Digital
    Codec ID                    : A_AC3
    Duration                    : 1 h 54 min
    Bit rate mode               : Constant
    Bit rate                    : 448 kb/s
    Channel(s)                  : 6 channels
    Channel layout              : L R C LFE Ls Rs
    Sampling rate               : 48.0 kHz
    Frame rate                  : 31.250 FPS (1536 SPF)
    Bit depth                   : 16 bits
    Compression mode            : Lossy
    Delay relative to video     : -5 ms
    Stream size                 : 367 MiB (10%)
    Title                       : AC3_5.1_Bluray_Eng
    Language                    : English
    Service kind                : Complete Main
    Default                     : No
    Forced                      : No

    Text #1
    ID                          : 4
    Format                      : UTF-8
    Codec ID                    : S_TEXT/UTF8
    Codec ID/Info               : UTF-8 Plain Text
    Duration                    : 1 h 53 min
    Bit rate                    : 1 b/s
    Count of elements           : 52
    Stream size                 : 1.55 KiB (0%)
    Title                       : Sub_Forzados
    Language                    : Spanish
    Default                     : Yes
    Forced                      : Yes

    Text #2
    ID                          : 5
    Format                      : UTF-8
    Codec ID                    : S_TEXT/UTF8
    Codec ID/Info               : UTF-8 Plain Text
    Duration                    : 1 h 53 min
    Bit rate                    : 31 b/s
    Count of elements           : 834
    Stream size                 : 25.9 KiB (0%)
    Title                       : Sub_Esp
    Language                    : Spanish
    Default                     : No
    Forced                      : No

    Menu
    00:00:00.000                : :Chapter 1
    00:05:26.034                : :Chapter 2
    00:10:10.360                : :Chapter 3
    00:15:02.902                : :Chapter 4
    00:17:59.245                : :Chapter 5
    00:21:00.843                : :Chapter 6
    00:25:41.540                : :Chapter 7
    00:30:44.343                : :Chapter 8
    00:34:50.672                : :Chapter 9
    00:40:29.844                : :Chapter 10
    00:44:01.097                : :Chapter 11
    00:46:12.395                : :Chapter 12
    00:51:56.280                : :Chapter 13
    00:53:44.263                : :Chapter 14
    00:56:13.871                : :Chapter 15
    01:02:38.672                : :Chapter 16
    01:07:04.229                : :Chapter 17
    01:10:37.859                : :Chapter 18
    01:14:52.363                : :Chapter 19
    01:19:20.047                : :Chapter 20
    01:22:42.166                : :Chapter 21
    01:27:02.634                : :Chapter 22
    01:30:30.175                : :Chapter 23
    01:34:34.252                : :Chapter 24
    01:37:19.000                : :Chapter 25
    01:41:12.525                : :Chapter 26
    01:46:39.143                : :Chapter 27
    01:54:35.369                : :Chapter 28

  • Peso: 3.67 GiB

Sinopsis

Descargar Terminator Salvation (2009) 1080p Latino. Nueva entrega de la saga de Terminator, que transcurre en un post-apocalíptico 2018, tras el día del Juicio Final. John Connor es el hombre destinado a liderar la resistencia de los humanos contra Skynet y su ejército de Terminators. Pero el futuro en el que a Connor le enseñaron a creer se ve alterado en parte por la aparición de Marcus Wright, un extraño cuyo último recuerdo es haber estado en el corredor de la muerte, y que afirma haber estado con Kyle Reese, el padre de John. Connor debe decidir si Marcus ha sido enviado desde el futuro o rescatado del pasado, todo en una carrera contrareloj mientras la Resistencia prepara su ataque final contra el corazón del centro de operaciones de Skynet.

Ficha técnica

Video trailer de la película

Enlaces de descarga

Rip de Bluray

Descargar Terminator Salvation (2009) 1080p Latino




Aportes de DPeliculasHDmega la pass es:dpeliculashdmega.org Aportes de CinemaniaHD la pass es:cinemaniahdd.com

Películas relacionadas

descargar Terminator Salvation (2009) 1080p Latino 1080p 1080p gratis, Terminator Salvation (2009) 1080p Latino 1080p mega 1 link, Terminator Salvation (2009) 1080p Latino 1080p pelicula completa, descargar Terminator Salvation (2009) 1080p Latino 1080p gratis en mega.

Terminator Salvation (2009) 1080p Latino pelicula full hd, Terminator Salvation (2009) 1080p Latino mega latino, Terminator Salvation (2009) 1080p Latino 4k latino, Terminator Salvation (2009) 1080p Latino pelicula completa, Terminator Salvation (2009) 1080p Latino descargar gratis, descargar Terminator Salvation (2009) 1080p Latino pelicula latino, Terminator Salvation (2009) 1080p Latino 1 link mega, Terminator Salvation (2009) 1080p Latino 1 link google drive, Terminator Salvation (2009) 1080p Latino hd 1080p latino.
Comentarios 0