×

¿Problemas para descargar con Mozilla, EDGE? Deshabilita la opción "Abrir vinculos en una pestaña nueva" tal como lo muestra ésta imagen.

Terminator 2 The Judgement Day (1991) Theatrical Cut REMUX 4K HDR Latino – CMHDD

191 vistas

Información de Terminator 2 The Judgement Day (1991) Theatrical Cut REMUX 4K HDR Latino – CMHDD

Datos de la película

  • Calidad: 4K HDR
  • Audio: Español Latino AC3 2.0 BLURAY - Ingles DTS 5.1 BLURAY
  • Subtitulos: No
  • Resolución: 3840x2160p
  • Formato: MKV
  • Codec: H.264
  • Encoder: Dracarys
  • Mediainfo: Clic para Mostrar Datos Ver
  • Format                      : Matroska
    Format version              : Version 4
    File size                   : 49.2 GiB
    Duration                    : 2 h 17 min
    Overall bit rate mode       : Variable
    Overall bit rate            : 51.0 Mb/s
    Movie name                  : Terminator 2 The Judgement Day (1991) Theatrical Cut REMUX 4K HDR Latino - CMHDD
    Encoded date                : UTC 2023-10-13 23:05:03
    Writing application         : mkvmerge v47.0.0 ('Black Flag') 64-bit
    Writing library             : libebml v1.3.10 + libmatroska v1.5.2

    Video
    ID                          : 1
    ID in the original source m : 4113 (0x1011)
    Format                      : HEVC
    Format/Info                 : High Efficiency Video Coding
    Format profile              : Main 10@L5.1@High
    Codec ID                    : V_MPEGH/ISO/HEVC
    Duration                    : 2 h 17 min
    Bit rate                    : 47.0 Mb/s
    Width                       : 3 840 pixels
    Height                      : 2 160 pixels
    Display aspect ratio        : 16:9
    Frame rate mode             : Constant
    Frame rate                  : 23.976 (24000/1001) FPS
    Color space                 : YUV
    Chroma subsampling          : 4:2:0 (Type 2)
    Bit depth                   : 10 bits
    Bits/(Pixel*Frame)          : 0.236
    Stream size                 : 45.0 GiB (92%)
    Writing library             : ATEME Titan File 3.7.10 (4.7.10.0)
    Default                     : Yes
    Forced                      : No
    Color range                 : Limited
    Color primaries             : BT.2020
    Transfer characteristics    : PQ
    Matrix coefficients         : BT.2020 non-constant
    Original source medium      : Blu-ray

    Audio #1
    ID                          : 2
    ID in the original source m : 4352 (0x1100)
    Format                      : DTS XLL
    Format/Info                 : Digital Theater Systems
    Commercial name             : DTS-HD Master Audio
    Codec ID                    : A_DTS
    Duration                    : 2 h 17 min
    Bit rate mode               : Variable
    Bit rate                    : 4 085 kb/s
    Channel(s)                  : 6 channels
    Channel layout              : C L R Ls Rs LFE
    Sampling rate               : 48.0 kHz
    Frame rate                  : 93.750 FPS (512 SPF)
    Bit depth                   : 24 bits
    Compression mode            : Lossless
    Stream size                 : 3.91 GiB (8%)
    Language                    : English
    Default                     : No
    Forced                      : No
    Original source medium      : Blu-ray

    Audio #2
    ID                          : 3
    Format                      : AC-3
    Format/Info                 : Audio Coding 3
    Codec ID                    : A_AC3
    Duration                    : 2 h 17 min
    Bit rate                    : 224 kb/s
    Channel(s)                  : 2 channels
    Sampling rate               : 48.0 kHz
    Frame rate                  : 31.250 FPS (1536 SPF)
    Compression mode            : Lossy
    Stream size                 : 220 MiB (0%)
    Language                    : Spanish
    Default                     : Yes
    Forced                      : No

    Text
    ID                          : 4
    Format                      : PGS
    Muxing mode                 : zlib
    Codec ID                    : S_HDMV/PGS
    Codec ID/Info               : Picture based subtitle format used on BDs/HD-DVDs
    Duration                    : 2 h 11 min
    Bit rate                    : 20.6 kb/s
    Frame rate                  : 0.241 FPS
    Count of elements           : 1893
    Stream size                 : 19.3 MiB (0%)
    Language                    : Spanish
    Default                     : Yes
    Forced                      : No

    Menu
    00:00:00.000                : en:Capítulo 01
    00:09:42.790                : en:Capítulo 02
    00:22:07.034                : en:Capítulo 03
    00:35:00.890                : en:Capítulo 04
    00:47:57.583                : en:Capítulo 05
    01:01:44.992                : en:Capítulo 06
    01:13:17.142                : en:Capítulo 07
    01:21:51.114                : en:Capítulo 08
    01:30:19.122                : en:Capítulo 09
    01:39:28.379                : en:Capítulo 10
    01:50:05.473                : en:Capítulo 11
    02:03:45.668                : en:Capítulo 12

     

  • Peso: 49.2 GiB

Sinopsis

Ha pasado once años desde que Sarah Connor fue marcada como objetivo para ser eliminada por un cyborg del futuro. Ahora su hijo John, el futuro líder de la resistencia, es el objetivo de un Terminator más moderno, más mortífero. Una vez más, la resistencia se las ha ingeniado para enviar un protector de vuelta al pasado para intentar salvar a John y a su madre Sarah.

Ficha técnica

Video trailer de la película

Enlaces de descarga

Rip de Bluray

Descargar Terminator 2 The Judgement Day (1991) Theatrical Cut REMUX 4K HDR Latino – CMHDD


Aportes de DPeliculasHDmega la pass es:dpeliculashdmega.org Aportes de CinemaniaHD la pass es:cinemaniahdd.com Aportes recientes:cinemaniahdd.net
Guardado en : Acción , Ciencia ficción , Suspenso

Películas relacionadas

descargar Terminator 2 The Judgement Day (1991) Theatrical Cut REMUX 4K HDR Latino – CMHDD 4K HDR 1080p gratis, Terminator 2 The Judgement Day (1991) Theatrical Cut REMUX 4K HDR Latino – CMHDD 4K HDR mega 1 link, Terminator 2 The Judgement Day (1991) Theatrical Cut REMUX 4K HDR Latino – CMHDD 4K HDR pelicula completa, descargar Terminator 2 The Judgement Day (1991) Theatrical Cut REMUX 4K HDR Latino – CMHDD 4K HDR gratis en mega.

Terminator 2 The Judgement Day (1991) Theatrical Cut REMUX 4K HDR Latino – CMHDD pelicula full hd, Terminator 2 The Judgement Day (1991) Theatrical Cut REMUX 4K HDR Latino – CMHDD mega latino, Terminator 2 The Judgement Day (1991) Theatrical Cut REMUX 4K HDR Latino – CMHDD 4k latino, Terminator 2 The Judgement Day (1991) Theatrical Cut REMUX 4K HDR Latino – CMHDD pelicula completa, Terminator 2 The Judgement Day (1991) Theatrical Cut REMUX 4K HDR Latino – CMHDD descargar gratis, descargar Terminator 2 The Judgement Day (1991) Theatrical Cut REMUX 4K HDR Latino – CMHDD pelicula latino, Terminator 2 The Judgement Day (1991) Theatrical Cut REMUX 4K HDR Latino – CMHDD 1 link mega, Terminator 2 The Judgement Day (1991) Theatrical Cut REMUX 4K HDR Latino – CMHDD 1 link google drive, Terminator 2 The Judgement Day (1991) Theatrical Cut REMUX 4K HDR Latino – CMHDD hd 1080p latino.
Comentarios 0