×

¿Problemas para descargar con Mozilla, EDGE? Deshabilita la opción "Abrir vinculos en una pestaña nueva" tal como lo muestra ésta imagen.

Terminator 2 The Judgement Day (1991) Extended ‘Special’ Cut REMUX 1080p Latino – CMHDD

197 vistas

Información de Terminator 2 The Judgement Day (1991) Extended ‘Special’ Cut REMUX 1080p Latino – CMHDD

Datos de la película

  • Calidad: Full 1080p
  • Audio: Español Latino AC3 2.0 BLURAY - Ingles DTS 5.1 BLURAY
  • Subtitulos: Español Latino PGS
  • Resolución: 19201080p
  • Formato: MKV
  • Codec: H.264
  • Encoder: Dracarys
  • Mediainfo: Clic para Mostrar Datos Ver
  • Format                      : Matroska
    Format version              : Version 4
    File size                   : 22.6 GiB
    Duration                    : 2 h 36 min
    Overall bit rate mode       : Variable
    Overall bit rate            : 20.8 Mb/s
    Movie name                  : Terminator 2 The Judgement Day (1991) Extended 'Special' Cut REMUX 1080p Latino - CMHDD
    Encoded date                : UTC 2023-10-12 22:28:56
    Writing application         : mkvmerge v47.0.0 ('Black Flag') 64-bit
    Writing library             : libebml v1.3.10 + libmatroska v1.5.2

    Video
    ID                          : 1
    Format                      : VC-1
    Format profile              : Advanced@L3
    Codec ID                    : V_MS/VFW/FOURCC / WVC1
    Codec ID/Hint               : Microsoft
    Duration                    : 2 h 36 min
    Bit rate                    : 16.5 Mb/s
    Width                       : 1 920 pixels
    Height                      : 1 080 pixels
    Display aspect ratio        : 16:9
    Frame rate mode             : Constant
    Frame rate                  : 23.976 (24000/1001) FPS
    Color space                 : YUV
    Chroma subsampling          : 4:2:0
    Bit depth                   : 8 bits
    Scan type                   : Progressive
    Compression mode            : Lossy
    Bits/(Pixel*Frame)          : 0.331
    Stream size                 : 17.9 GiB (79%)
    Default                     : Yes
    Forced                      : No

    Audio #1
    ID                          : 2
    Format                      : AC-3
    Format/Info                 : Audio Coding 3
    Commercial name             : Dolby Digital
    Codec ID                    : A_AC3
    Duration                    : 2 h 36 min
    Bit rate mode               : Constant
    Bit rate                    : 224 kb/s
    Channel(s)                  : 2 channels
    Channel layout              : L R
    Sampling rate               : 48.0 kHz
    Frame rate                  : 31.250 FPS (1536 SPF)
    Compression mode            : Lossy
    Stream size                 : 250 MiB (1%)
    Language                    : Spanish
    Service kind                : Complete Main
    Default                     : Yes
    Forced                      : No

    Audio #2
    ID                          : 3
    Format                      : DTS ES XLL
    Format/Info                 : Digital Theater Systems
    Commercial name             : DTS-HD Master Audio
    Codec ID                    : A_DTS
    Duration                    : 2 h 36 min
    Bit rate mode               : Variable
    Bit rate                    : 4 046 kb/s
    Channel(s)                  : 6 channels
    Channel(s)_Original         : 7 channels
    ChannelLayout_Original      : C L R Ls Rs LFE Cb
    Sampling rate               : 48.0 kHz
    Frame rate                  : 93.750 FPS (512 SPF)
    Bit depth                   : 24 bits
    Compression mode            : Lossless
    Stream size                 : 4.41 GiB (19%)
    Language                    : English
    Default                     : No
    Forced                      : No

    Text #1
    ID                          : 4
    Format                      : PGS
    Muxing mode                 : zlib
    Codec ID                    : S_HDMV/PGS
    Codec ID/Info               : Picture based subtitle format used on BDs/HD-DVDs
    Duration                    : 2 h 28 min
    Bit rate                    : 8 256 b/s
    Frame rate                  : 0.056 FPS
    Count of elements           : 497
    Stream size                 : 8.77 MiB (0%)
    Language                    : Spanish
    Default                     : Yes
    Forced                      : No

    Text #2
    ID                          : 5
    Format                      : PGS
    Muxing mode                 : zlib
    Codec ID                    : S_HDMV/PGS
    Codec ID/Info               : Picture based subtitle format used on BDs/HD-DVDs
    Duration                    : 2 h 34 min
    Bit rate                    : 43.2 kb/s
    Frame rate                  : 0.294 FPS
    Count of elements           : 2716
    Stream size                 : 47.7 MiB (0%)
    Language                    : Spanish
    Default                     : No
    Forced                      : No

     

  • Peso: 22.6 GiB

Sinopsis

Ha pasado once años desde que Sarah Connor fue marcada como objetivo para ser eliminada por un cyborg del futuro. Ahora su hijo John, el futuro líder de la resistencia, es el objetivo de un Terminator más moderno, más mortífero. Una vez más, la resistencia se las ha ingeniado para enviar un protector de vuelta al pasado para intentar salvar a John y a su madre Sarah.

Ficha técnica

Video trailer de la película

Enlaces de descarga

Rip de Bluray

Descargar Terminator 2 The Judgement Day (1991) Extended ‘Special’ Cut REMUX 1080p Latino – CMHDD




Aportes de DPeliculasHDmega la pass es:dpeliculashdmega.org Aportes de CinemaniaHD la pass es:cinemaniahdd.com Aportes recientes:cinemaniahdd.net
Guardado en : Acción , Ciencia ficción , Suspenso

Películas relacionadas

descargar Terminator 2 The Judgement Day (1991) Extended ‘Special’ Cut REMUX 1080p Latino – CMHDD Full 1080p 1080p gratis, Terminator 2 The Judgement Day (1991) Extended ‘Special’ Cut REMUX 1080p Latino – CMHDD Full 1080p mega 1 link, Terminator 2 The Judgement Day (1991) Extended ‘Special’ Cut REMUX 1080p Latino – CMHDD Full 1080p pelicula completa, descargar Terminator 2 The Judgement Day (1991) Extended ‘Special’ Cut REMUX 1080p Latino – CMHDD Full 1080p gratis en mega.

Terminator 2 The Judgement Day (1991) Extended ‘Special’ Cut REMUX 1080p Latino – CMHDD pelicula full hd, Terminator 2 The Judgement Day (1991) Extended ‘Special’ Cut REMUX 1080p Latino – CMHDD mega latino, Terminator 2 The Judgement Day (1991) Extended ‘Special’ Cut REMUX 1080p Latino – CMHDD 4k latino, Terminator 2 The Judgement Day (1991) Extended ‘Special’ Cut REMUX 1080p Latino – CMHDD pelicula completa, Terminator 2 The Judgement Day (1991) Extended ‘Special’ Cut REMUX 1080p Latino – CMHDD descargar gratis, descargar Terminator 2 The Judgement Day (1991) Extended ‘Special’ Cut REMUX 1080p Latino – CMHDD pelicula latino, Terminator 2 The Judgement Day (1991) Extended ‘Special’ Cut REMUX 1080p Latino – CMHDD 1 link mega, Terminator 2 The Judgement Day (1991) Extended ‘Special’ Cut REMUX 1080p Latino – CMHDD 1 link google drive, Terminator 2 The Judgement Day (1991) Extended ‘Special’ Cut REMUX 1080p Latino – CMHDD hd 1080p latino.
Comentarios 0