×

¿Problemas para descargar con Mozilla, EDGE? Deshabilita la opción "Abrir vinculos en una pestaña nueva" tal como lo muestra ésta imagen.

Terminator 2 The Judgement Day (1991) Extended Cut REMUX 1080p Latino – CMHDD

198 vistas

Información de Terminator 2 The Judgement Day (1991) Extended Cut REMUX 1080p Latino – CMHDD

Datos de la película

  • Calidad: Full 1080p
  • Audio: Español Latino AC3 2.0 BLURAY - Ingles DTS 5.1 BLURAY
  • Subtitulos: Español Latino PGS
  • Resolución: 19201080p
  • Formato: MKV
  • Codec: H.264
  • Encoder: Dracarys
  • Mediainfo: Clic para Mostrar Datos Ver
  • Format                      : Matroska
    Format version              : Version 4
    File size                   : 31.2 GiB
    Duration                    : 2 h 33 min
    Overall bit rate mode       : Variable
    Overall bit rate            : 29.1 Mb/s
    Movie name                  : Terminator 2 The Judgement Day (1991) Extended Cut REMUX 1080p Latino - CMHDD
    Encoded date                : UTC 2023-10-13 00:20:57
    Writing application         : mkvmerge v47.0.0 ('Black Flag') 64-bit
    Writing library             : libebml v1.3.10 + libmatroska v1.5.2
    Cover                       : Yes
    Attachments                 : cover.jpg

    Video
    ID                          : 1
    Format                      : AVC
    Format/Info                 : Advanced Video Codec
    Format profile              : High@L4.1
    Format settings             : CABAC / 4 Ref Frames
    Format settings, CABAC      : Yes
    Format settings, Reference  : 4 frames
    Codec ID                    : V_MPEG4/ISO/AVC
    Duration                    : 2 h 33 min
    Bit rate mode               : Variable
    Bit rate                    : 24.8 Mb/s
    Maximum bit rate            : 38.0 Mb/s
    Width                       : 1 920 pixels
    Height                      : 1 080 pixels
    Display aspect ratio        : 16:9
    Frame rate mode             : Constant
    Frame rate                  : 23.976 (23976/1000) FPS
    Original frame rate         : 23.976 (24000/1001) FPS
    Color space                 : YUV
    Chroma subsampling          : 4:2:0
    Bit depth                   : 8 bits
    Scan type                   : Progressive
    Bits/(Pixel*Frame)          : 0.500
    Stream size                 : 26.6 GiB (85%)
    Default                     : Yes
    Forced                      : No

    Audio #1
    ID                          : 2
    Format                      : DTS XLL
    Format/Info                 : Digital Theater Systems
    Commercial name             : DTS-HD Master Audio
    Codec ID                    : A_DTS
    Duration                    : 2 h 33 min
    Bit rate mode               : Variable
    Bit rate                    : 3 838 kb/s
    Channel(s)                  : 6 channels
    Channel layout              : C L R Ls Rs LFE
    Sampling rate               : 48.0 kHz
    Frame rate                  : 93.750 FPS (512 SPF)
    Bit depth                   : 24 bits
    Compression mode            : Lossless
    Stream size                 : 4.11 GiB (13%)
    Language                    : English
    Default                     : No
    Forced                      : No

    Audio #2
    ID                          : 3
    Format                      : AC-3
    Format/Info                 : Audio Coding 3
    Commercial name             : Dolby Digital
    Format settings             : Dolby Surround
    Codec ID                    : A_AC3
    Duration                    : 2 h 33 min
    Bit rate mode               : Constant
    Bit rate                    : 224 kb/s
    Channel(s)                  : 2 channels
    Channel layout              : L R
    Sampling rate               : 48.0 kHz
    Frame rate                  : 31.250 FPS (1536 SPF)
    Compression mode            : Lossy
    Stream size                 : 246 MiB (1%)
    Language                    : English
    Service kind                : Complete Main
    Default                     : No
    Forced                      : No

    Audio #3
    ID                          : 4
    Format                      : AC-3
    Format/Info                 : Audio Coding 3
    Commercial name             : Dolby Digital
    Codec ID                    : A_AC3
    Duration                    : 2 h 33 min
    Bit rate mode               : Constant
    Bit rate                    : 224 kb/s
    Channel(s)                  : 2 channels
    Channel layout              : L R
    Sampling rate               : 48.0 kHz
    Frame rate                  : 31.250 FPS (1536 SPF)
    Compression mode            : Lossy
    Delay relative to video     : 16 ms
    Stream size                 : 246 MiB (1%)
    Language                    : Spanish
    Service kind                : Complete Main
    Default                     : Yes
    Forced                      : No

    Text #1
    ID                          : 5
    Format                      : PGS
    Muxing mode                 : zlib
    Codec ID                    : S_HDMV/PGS
    Codec ID/Info               : Picture based subtitle format used on BDs/HD-DVDs
    Duration                    : 2 h 31 min
    Bit rate                    : 20.5 kb/s
    Frame rate                  : 0.240 FPS
    Count of elements           : 2177
    Stream size                 : 22.2 MiB (0%)
    Language                    : Spanish
    Default                     : No
    Forced                      : No

    Text #2
    ID                          : 6
    Format                      : PGS
    Muxing mode                 : zlib
    Codec ID                    : S_HDMV/PGS
    Codec ID/Info               : Picture based subtitle format used on BDs/HD-DVDs
    Duration                    : 2 h 25 min
    Bit rate                    : 8 130 b/s
    Frame rate                  : 0.055 FPS
    Count of elements           : 484
    Stream size                 : 8.48 MiB (0%)
    Language                    : Spanish
    Default                     : Yes
    Forced                      : No

    Menu
    00:00:00.000                : en:Capítulo 01
    00:00:50.091                : en:Capítulo 02
    00:03:36.299                : en:Capítulo 03
    00:05:34.959                : en:Capítulo 04
    00:06:46.406                : en:Capítulo 05
    00:09:09.215                : en:Capítulo 06
    00:10:31.547                : en:Capítulo 07
    00:12:29.498                : en:Capítulo 08
    00:13:37.107                : en:Capítulo 09
    00:15:29.720                : en:Capítulo 10
    00:16:29.905                : en:Capítulo 11
    00:17:39.308                : en:Capítulo 12
    00:19:10.148                : en:Capítulo 13
    00:22:27.220                : en:Capítulo 14
    00:25:54.469                : en:Capítulo 15
    00:27:27.979                : en:Capítulo 16
    00:28:51.187                : en:Capítulo 17
    00:29:44.657                : en:Capítulo 18
    00:31:21.045                : en:Capítulo 19
    00:33:57.577                : en:Capítulo 20
    00:35:08.231                : en:Capítulo 21
    00:38:48.325                : en:Capítulo 22
    00:41:31.530                : en:Capítulo 23
    00:44:14.151                : en:Capítulo 24
    00:44:44.014                : en:Capítulo 25
    00:45:59.381                : en:Capítulo 26
    00:49:45.941                : en:Capítulo 27
    00:52:57.424                : en:Capítulo 28
    00:54:41.986                : en:Capítulo 29
    00:56:19.626                : en:Capítulo 30
    00:57:03.002                : en:Capítulo 31
    00:58:11.988                : en:Capítulo 32
    01:00:21.909                : en:Capítulo 33
    01:01:49.372                : en:Capítulo 34
    01:06:22.603                : en:Capítulo 35
    01:07:57.865                : en:Capítulo 36
    01:08:38.781                : en:Capítulo 37
    01:10:01.655                : en:Capítulo 38
    01:13:27.903                : en:Capítulo 39
    01:14:06.441                : en:Capítulo 40
    01:14:56.199                : en:Capítulo 41
    01:16:24.204                : en:Capítulo 42
    01:18:46.513                : en:Capítulo 43
    01:21:07.028                : en:Capítulo 44
    01:23:36.594                : en:Capítulo 45
    01:26:23.136                : en:Capítulo 46
    01:30:43.396                : en:Capítulo 47
    01:33:00.366                : en:Capítulo 48
    01:33:30.646                : en:Capítulo 49
    01:35:13.749                : en:Capítulo 50
    01:41:33.086                : en:Capítulo 51
    01:44:22.130                : en:Capítulo 52
    01:46:23.627                : en:Capítulo 53
    01:48:23.747                : en:Capítulo 54
    01:49:03.411                : en:Capítulo 55
    01:49:54.003                : en:Capítulo 56
    01:52:02.131                : en:Capítulo 57
    01:53:51.324                : en:Capítulo 58
    01:54:23.856                : en:Capítulo 59
    01:56:44.997                : en:Capítulo 60
    01:58:16.255                : en:Capítulo 61
    01:59:56.439                : en:Capítulo 62
    02:01:09.053                : en:Capítulo 63
    02:02:07.653                : en:Capítulo 64
    02:04:46.603                : en:Capítulo 65
    02:08:51.390                : en:Capítulo 66
    02:12:20.682                : en:Capítulo 67
    02:13:00.013                : en:Capítulo 68
    02:13:33.171                : en:Capítulo 69
    02:14:42.907                : en:Capítulo 70
    02:15:18.026                : en:Capítulo 71
    02:17:14.476                : en:Capítulo 72
    02:19:14.304                : en:Capítulo 73
    02:19:46.919                : en:Capítulo 74
    02:20:22.747                : en:Capítulo 75
    02:21:53.421                : en:Capítulo 76
    02:24:06.637                : en:Capítulo 77
    02:27:57.618                : en:Capítulo 78
    02:28:40.286                : en:Capítulo 79
    02:32:41.610                : en:Capítulo 80

     

  • Peso: 31.2 GiB

Sinopsis

Ha pasado once años desde que Sarah Connor fue marcada como objetivo para ser eliminada por un cyborg del futuro. Ahora su hijo John, el futuro líder de la resistencia, es el objetivo de un Terminator más moderno, más mortífero. Una vez más, la resistencia se las ha ingeniado para enviar un protector de vuelta al pasado para intentar salvar a John y a su madre Sarah.

Ficha técnica

Video trailer de la película

Enlaces de descarga

Rip de Bluray

Descargar Terminator 2 The Judgement Day (1991) Extended Cut REMUX 1080p Latino – CMHDD




Aportes de DPeliculasHDmega la pass es:dpeliculashdmega.org Aportes de CinemaniaHD la pass es:cinemaniahdd.com Aportes recientes:cinemaniahdd.net
Guardado en : Acción , Ciencia ficción , Suspenso

Películas relacionadas

  • Dune: Parte dos (2024) WEB-DL 4K UHD HDR Latino

    Dune: Parte dos (2024) WEB-DL 4K UHD HDR Latino

    2024
    Dune: Parte dos (2024) WEB-DL 4K UHD HDR Latino

    2h 47m 2024

    Descargar Dune: Parte dos (2024) WEB-DL 4K UHD HDR Latino. Sigue el viaje mítico de Paul Atreides mientras...

    Director: Vera Janisch

    Género: 4K HDR

    Actores: Zouhair Elakkari

  • Dune: Parte dos (2024) AMZN WEB-DL 1080p Latino

    Dune: Parte dos (2024) AMZN WEB-DL 1080p Latino

    2024
    Dune: Parte dos (2024) AMZN WEB-DL 1080p Latino

    2h 47m 2024

    Descargar Dune: Parte dos (2024) AMZN WEB-DL 1080p Latino. Sigue el viaje mítico de Paul Atreides mientras...

    Director: Vera Janisch

    Género: Aventura

    Actores: Zouhair Elakkari

  • Godzilla vs. Kong (2021) REMUX 4K HDR Latino – CMHDD

    Godzilla vs. Kong (2021) REMUX 4K HDR Latino – CMHDD

    2021
    Godzilla vs. Kong (2021) REMUX 4K HDR Latino – CMHDD

    1h 54m 2021

    Godzilla y Kong, dos de las fuerzas más poderosas de un planeta habitado por todo tipo de aterradoras...

    Director: Thomas Robinson Harper

    Género: Acción

    Actores: Victoria Liu

  • Bumblebee (2018) REMUX 4K HDR Latino – CMHDD

    Bumblebee (2018) REMUX 4K HDR Latino – CMHDD

    2018
    Bumblebee (2018) REMUX 4K HDR Latino – CMHDD

    1h 54m 2018

    Sexta entrega de la saga 'Transformers', esta vez centrada en el "hermano pequeño" de los Autobots,...

    Director: Trisha Burton

    Género: Acción

    Actores: William W. Barbour

descargar Terminator 2 The Judgement Day (1991) Extended Cut REMUX 1080p Latino – CMHDD Full 1080p 1080p gratis, Terminator 2 The Judgement Day (1991) Extended Cut REMUX 1080p Latino – CMHDD Full 1080p mega 1 link, Terminator 2 The Judgement Day (1991) Extended Cut REMUX 1080p Latino – CMHDD Full 1080p pelicula completa, descargar Terminator 2 The Judgement Day (1991) Extended Cut REMUX 1080p Latino – CMHDD Full 1080p gratis en mega.

Terminator 2 The Judgement Day (1991) Extended Cut REMUX 1080p Latino – CMHDD pelicula full hd, Terminator 2 The Judgement Day (1991) Extended Cut REMUX 1080p Latino – CMHDD mega latino, Terminator 2 The Judgement Day (1991) Extended Cut REMUX 1080p Latino – CMHDD 4k latino, Terminator 2 The Judgement Day (1991) Extended Cut REMUX 1080p Latino – CMHDD pelicula completa, Terminator 2 The Judgement Day (1991) Extended Cut REMUX 1080p Latino – CMHDD descargar gratis, descargar Terminator 2 The Judgement Day (1991) Extended Cut REMUX 1080p Latino – CMHDD pelicula latino, Terminator 2 The Judgement Day (1991) Extended Cut REMUX 1080p Latino – CMHDD 1 link mega, Terminator 2 The Judgement Day (1991) Extended Cut REMUX 1080p Latino – CMHDD 1 link google drive, Terminator 2 The Judgement Day (1991) Extended Cut REMUX 1080p Latino – CMHDD hd 1080p latino.
Comentarios 0