×

¿Problemas para descargar con Mozilla, EDGE? Deshabilita la opción "Abrir vinculos en una pestaña nueva" tal como lo muestra ésta imagen.

Tengo Miedo Torero (2020) AMZN WEB-DL 1080p Latino

202 vistas

Información de Tengo Miedo Torero (2020) AMZN WEB-DL 1080p Latino

Datos de la película

  • Calidad: WEBDL
  • Audio: Español Latino AC3 2.0
  • Subtitulos: Español Latino SRT - Ingles SRT
  • Resolución: 1920x800
  • Formato: MKV
  • Codec: H.264
  • Encoder: cinemaniahdd
  • Mediainfo: Clic para Mostrar Datos Ver
  • Tengo Miedo Torero (2020) AMZN WEB-DL 1080p Latino [CNMNHDD].mkv
    Format                      : Matroska
    Format version              : Version 4
    File size                   : 4.98 GiB
    Duration                    : 1 h 34 min
    Overall bit rate            : 7 567 kb/s
    Movie name                  : Tengo Miedo Torero (2020) - CinemaniaHDD.Net
    Encoded date                : UTC 2021-04-16 01:55:11
    Writing application         : mkvmerge v51.0.0 ('I Wish') 64-bit
    Writing library             : libebml v1.4.0 + libmatroska v1.6.2

    Video
    ID                          : 1
    Format                      : AVC
    Format/Info                 : Advanced Video Codec
    Format profile              : High@L4
    Format settings             : CABAC / 4 Ref Frames
    Format settings, CABAC      : Yes
    Format settings, Reference  : 4 frames
    Codec ID                    : V_MPEG4/ISO/AVC
    Duration                    : 1 h 34 min
    Bit rate mode               : Constant
    Bit rate                    : 6 956 kb/s
    Nominal bit rate            : 10 000 kb/s
    Width                       : 1 920 pixels
    Height                      : 816 pixels
    Display aspect ratio        : 2.35:1
    Frame rate mode             : Constant
    Frame rate                  : 23.976 (24000/1001) FPS
    Color space                 : YUV
    Chroma subsampling          : 4:2:0
    Bit depth                   : 8 bits
    Scan type                   : Progressive
    Bits/(Pixel*Frame)          : 0.185
    Stream size                 : 4.57 GiB (92%)
    Title                       : CinemaniaHDD
    Default                     : Yes
    Forced                      : No
    Color range                 : Limited
    Color primaries             : BT.709
    Transfer characteristics    : BT.709
    Matrix coefficients         : BT.709

    Audio #1
    ID                          : 2
    Format                      : AC-3
    Format/Info                 : Audio Coding 3
    Commercial name             : Dolby Digital
    Codec ID                    : A_AC3
    Duration                    : 1 h 34 min
    Bit rate mode               : Constant
    Bit rate                    : 256 kb/s
    Channel(s)                  : 2 channels
    Channel layout              : L R
    Sampling rate               : 48.0 kHz
    Frame rate                  : 31.250 FPS (1536 SPF)
    Compression mode            : Lossy
    Title                       : Español latino - AC3 [CinemaniaHDD]
    Language                    : Spanish
    Service kind                : Complete Main
    Default                     : Yes
    Forced                      : No

    Audio #2
    ID                          : 3
    Format                      : E-AC-3
    Format/Info                 : Enhanced AC-3
    Commercial name             : Dolby Digital Plus
    Codec ID                    : A_EAC3
    Duration                    : 1 h 34 min
    Bit rate mode               : Constant
    Bit rate                    : 224 kb/s
    Channel(s)                  : 2 channels
    Channel layout              : L R
    Sampling rate               : 48.0 kHz
    Frame rate                  : 31.250 FPS (1536 SPF)
    Compression mode            : Lossy
    Title                       : Español latino - E-AC3 [CinemaniaHDD]
    Language                    : Spanish
    Service kind                : Complete Main
    Default                     : No
    Forced                      : No

    Text #1
    ID                          : 4
    Format                      : UTF-8
    Codec ID                    : S_TEXT/UTF8
    Codec ID/Info               : UTF-8 Plain Text
    Duration                    : 1 h 33 min
    Bit rate                    : 48 b/s
    Count of elements           : 1162
    Stream size                 : 33.3 KiB (0%)
    Title                       : Español latino [CinemaniaHDD]
    Language                    : Spanish
    Default                     : No
    Forced                      : No

    Text #2
    ID                          : 5
    Format                      : UTF-8
    Codec ID                    : S_TEXT/UTF8
    Codec ID/Info               : UTF-8 Plain Text
    Duration                    : 1 h 28 min
    Bit rate                    : 38 b/s
    Count of elements           : 921
    Stream size                 : 24.8 KiB (0%)
    Title                       : Inglés [CinemaniaHDD]
    Language                    : English
    Default                     : No
    Forced                      : No

    Menu
    00:00:00.000                : :Amazon Original
    00:00:06.000                : :Studio Logo
    00:00:31.000                : :Scene 3
    00:05:22.000                : :Scene 4
    00:09:56.000                : :Scene 5
    00:12:23.000                : :Scene 6
    00:20:07.000                : :Scene 7
    00:24:03.000                : :Scene 8
    00:29:01.000                : :Scene 9
    00:34:39.000                : :Scene 10
    00:37:17.000                : :Scene 11
    00:46:09.000                : :Scene 12
    00:52:17.000                : :Scene 13
    00:58:17.000                : :Scene 14
    00:59:26.000                : :Scene 15
    01:04:09.000                : :Scene 16
    01:13:23.000                : :Scene 17
    01:17:36.000                : :Scene 18
    01:22:15.000                : :Scene 19
    01:29:04.000                : :End Credits

     

  • Peso: 4.98 GiB

Sinopsis

Entre disparos y boleros, una relación apasionada florece entre un travesti solitario y un joven guerrillero durante la dictadura de Pinochet.

Ficha técnica

Video trailer de la película

Enlaces de descarga

Rip de Bluray

Descargar Tengo Miedo Torero (2020) AMZN WEB-DL 1080p Latino




Aportes de DPeliculasHDmega la pass es:dpeliculashdmega.org Aportes de CinemaniaHD la pass es:cinemaniahdd.com
Guardado en : Drama , Romance

Películas relacionadas

  • El discurso del Rey (2010) 1080p Latino

    El discurso del Rey (2010) 1080p Latino

    2010
    El discurso del Rey (2010) 1080p Latino

    1h 58m 2010

    Descargar El discurso del Rey (2010) 1080p Latino. El duque de York se convirtió en rey de Gran Bretaña...

    Director: Tom Hooper

    Género: Drama

    Actores: Tony Earnshaw

  • El discurso del Rey (2010) Full HD 1080p Latino

    El discurso del Rey (2010) Full HD 1080p Latino

    2010
    El discurso del Rey (2010) Full HD 1080p Latino

    1h 58m 2010

    Descargar El discurso del Rey (2010) Full HD 1080p Latino. El duque de York se convirtió en rey de Gran...

    Director: Tom Hooper

    Género: Drama

    Actores: Tony Earnshaw

  • El discurso del Rey (2010) REMUX 1080p Latino

    El discurso del Rey (2010) REMUX 1080p Latino

    2010
    El discurso del Rey (2010) REMUX 1080p Latino

    1h 58m 2010

    Descargar El discurso del Rey (2010) REMUX 1080p Latino. El duque de York se convirtió en rey de Gran...

    Director: Tom Hooper

    Género: Drama

    Actores: Tony Earnshaw

  • 8 Mile (2002) REMUX 4K HDR Latino – CMHDD

    8 Mile (2002) REMUX 4K HDR Latino – CMHDD

    2002
    8 Mile (2002) REMUX 4K HDR Latino – CMHDD

    1h 50m 2002

    Detroit, 1995. La promesa de potencia industrial se ha transformado en un hervidero de conflictos económicos...

    Director: Michael J. Moore

    Género: Drama

    Actores: Xzibit

descargar Tengo Miedo Torero (2020) AMZN WEB-DL 1080p Latino WEBDL 1080p gratis, Tengo Miedo Torero (2020) AMZN WEB-DL 1080p Latino WEBDL mega 1 link, Tengo Miedo Torero (2020) AMZN WEB-DL 1080p Latino WEBDL pelicula completa, descargar Tengo Miedo Torero (2020) AMZN WEB-DL 1080p Latino WEBDL gratis en mega.

Tengo Miedo Torero (2020) AMZN WEB-DL 1080p Latino pelicula full hd, Tengo Miedo Torero (2020) AMZN WEB-DL 1080p Latino mega latino, Tengo Miedo Torero (2020) AMZN WEB-DL 1080p Latino 4k latino, Tengo Miedo Torero (2020) AMZN WEB-DL 1080p Latino pelicula completa, Tengo Miedo Torero (2020) AMZN WEB-DL 1080p Latino descargar gratis, descargar Tengo Miedo Torero (2020) AMZN WEB-DL 1080p Latino pelicula latino, Tengo Miedo Torero (2020) AMZN WEB-DL 1080p Latino 1 link mega, Tengo Miedo Torero (2020) AMZN WEB-DL 1080p Latino 1 link google drive, Tengo Miedo Torero (2020) AMZN WEB-DL 1080p Latino hd 1080p latino.
Comentarios 0