×

¿Problemas para descargar con Mozilla, EDGE? Deshabilita la opción "Abrir vinculos en una pestaña nueva" tal como lo muestra ésta imagen.

Tenet (2020) IMAX REMUX 1080p Latino-CMHDD

422 vistas

Información de Tenet (2020) IMAX REMUX 1080p Latino-CMHDD

Datos de la película

  • Calidad: Full 1080p
  • Audio: Español Latino AC3 5.1 BLURAY - Ingles DTS 5.1 BLURAY
  • Subtitulos: Español Latino PGS - Ingles PGS
  • Resolución: 1920x1080p
  • Formato: MKV
  • Codec: H.264
  • Encoder: Dracarys
  • Mediainfo: Clic para Mostrar Datos Ver
  • Tenet (2020) REMUX 1080p Latino-CMHDD.mkv
    Format                      : Matroska
    Format version              : Version 4
    File size                   : 36.2 GiB
    Duration                    : 2 h 30 min
    Overall bit rate mode       : Variable
    Overall bit rate            : 34.5 Mb/s
    Movie name                  : Tenet (2020) CinemaniaHDD.Net
    Encoded date                : UTC 2020-12-04 04:55:18
    Writing application         : mkvmerge v51.0.0 ('I Wish') 64-bit
    Writing library             : libebml v1.4.0 + libmatroska v1.6.2
    Attachments                 : CINEMANIAHD.png

    Video
    ID                          : 1
    Format                      : AVC
    Format/Info                 : Advanced Video Codec
    Format profile              : High@L4.1
    Format settings             : CABAC / 2 Ref Frames
    Format settings, CABAC      : Yes
    Format settings, Reference  : 2 frames
    Format settings, GOP        : M=1, N=10
    Codec ID                    : V_MPEG4/ISO/AVC
    Duration                    : 2 h 30 min
    Bit rate mode               : Variable
    Bit rate                    : 29.8 Mb/s
    Width                       : 1 920 pixels
    Height                      : 1 080 pixels
    Display aspect ratio        : 16:9
    Frame rate mode             : Constant
    Frame rate                  : 23.976 (24000/1001) FPS
    Color space                 : YUV
    Chroma subsampling          : 4:2:0
    Bit depth                   : 8 bits
    Scan type                   : Progressive
    Bits/(Pixel*Frame)          : 0.599
    Stream size                 : 31.2 GiB (86%)
    Title                       : REMUX HD1080p [CinemaniaHDD]
    Default                     : Yes
    Forced                      : No

    Audio #1
    ID                          : 2
    Format                      : AC-3
    Format/Info                 : Audio Coding 3
    Commercial name             : Dolby Digital
    Codec ID                    : A_AC3
    Duration                    : 2 h 30 min
    Bit rate mode               : Constant
    Bit rate                    : 640 kb/s
    Channel(s)                  : 6 channels
    Channel layout              : L R C LFE Ls Rs
    Sampling rate               : 48.0 kHz
    Frame rate                  : 31.250 FPS (1536 SPF)
    Compression mode            : Lossy
    Stream size                 : 687 MiB (2%)
    Title                       : Español Latino [CinemaniaHDD]
    Language                    : Spanish
    Service kind                : Complete Main
    Default                     : Yes
    Forced                      : No

    Audio #2
    ID                          : 3
    Format                      : DTS XLL
    Format/Info                 : Digital Theater Systems
    Commercial name             : DTS-HD Master Audio
    Codec ID                    : A_DTS
    Duration                    : 2 h 30 min
    Bit rate mode               : Variable
    Bit rate                    : 4 036 kb/s
    Channel(s)                  : 6 channels
    Channel layout              : C L R Ls Rs LFE
    Sampling rate               : 48.0 kHz
    Frame rate                  : 93.750 FPS (512 SPF)
    Bit depth                   : 24 bits
    Compression mode            : Lossless
    Stream size                 : 4.23 GiB (12%)
    Title                       : Ingles [CinemaniaHDD]
    Language                    : English
    Default                     : No
    Forced                      : No

    Text #1
    ID                          : 4
    Format                      : PGS
    Muxing mode                 : zlib
    Codec ID                    : S_HDMV/PGS
    Codec ID/Info               : Picture based subtitle format used on BDs/HD-DVDs
    Duration                    : 2 h 22 min
    Bit rate                    : 33.8 kb/s
    Count of elements           : 3656
    Stream size                 : 34.5 MiB (0%)
    Title                       : Español-PGS [CinemaniaHDD]
    Language                    : Spanish
    Default                     : No
    Forced                      : No

    Text #2
    ID                          : 5
    Format                      : PGS
    Muxing mode                 : zlib
    Codec ID                    : S_HDMV/PGS
    Codec ID/Info               : Picture based subtitle format used on BDs/HD-DVDs
    Duration                    : 2 h 26 min
    Bit rate                    : 36.4 kb/s
    Count of elements           : 4274
    Stream size                 : 38.3 MiB (0%)
    Title                       : Ingles-PGS [CinemaniaHDD]
    Language                    : Spanish
    Default                     : No
    Forced                      : No

    Text #3
    ID                          : 6
    Format                      : UTF-8
    Codec ID                    : S_TEXT/UTF8
    Codec ID/Info               : UTF-8 Plain Text
    Duration                    : 1 h 30 min
    Bit rate                    : 0 b/s
    Count of elements           : 10
    Stream size                 : 248 Bytes (0%)
    Title                       : Forzados-SRT [CinemaniaHDD]
    Language                    : Spanish
    Default                     : Yes
    Forced                      : No

    Text #4
    ID                          : 7
    Format                      : UTF-8
    Codec ID                    : S_TEXT/UTF8
    Codec ID/Info               : UTF-8 Plain Text
    Duration                    : 2 h 22 min
    Bit rate                    : 60 b/s
    Count of elements           : 1470
    Stream size                 : 63.8 KiB (0%)
    Title                       : Español-SRT [CinemaniaHDD]
    Language                    : Spanish
    Default                     : No
    Forced                      : No

    Menu
    00:00:00.000                : en:Chapter 01
    00:09:39.412                : en:Chapter 02
    00:19:30.503                : en:Chapter 03
    00:28:18.405                : en:Chapter 04
    00:38:49.369                : en:Chapter 05
    00:49:20.166                : en:Chapter 06
    01:00:33.255                : en:Chapter 07
    01:09:41.511                : en:Chapter 08
    01:22:36.410                : en:Chapter 09
    01:30:54.741                : en:Chapter 10
    01:39:40.683                : en:Chapter 11
    01:51:02.322                : en:Chapter 12
    01:59:40.799                : en:Chapter 13
    02:11:42.853                : en:Chapter 14
    02:19:07.089                : en:Chapter 15

  • Peso: 36.2 GiB

Sinopsis

En el mundo del espionaje internacional, un hombre (John David Washington) prefiere morir antes que entregar a sus compañeros. Tras conseguir superar esta difícil prueba, este hombre tendrá una importante misión: evitar una nueva amenaza mucho más peligrosa que la tercera guerra mundial. La clave será una sola palabra: TENET. Será entonces cuando tenga que hacer frente a un terrible villano (al que da vida Kenneth Branagh), un tipo que parece que puede viajar en el tiempo y mandar información al futuro. Ayudado por la mujer de éste (interpretada por Elizabeth Debicki), el protagonista trama un plan para salvar la vida en la Tierra tal y como la conocemos.

Ficha técnica

Video trailer de la película

Enlaces de descarga

Rip de Bluray

Descargar Tenet (2020) IMAX REMUX 1080p Latino-CMHDD




Aportes de DPeliculasHDmega la pass es:dpeliculashdmega.org Aportes de CinemaniaHD la pass es:cinemaniahdd.com
Guardado en : Acción , Ciencia ficción , Remux , Suspenso

Películas relacionadas

  • Paradise Highway (2022) HD 1080p Latino

    Paradise Highway (2022) HD 1080p Latino

    2022
    Paradise Highway (2022) HD 1080p Latino

    1h 55m 2022

    Descargar Paradise Highway (2022) HD 1080p Latino. Un camionero se ha visto obligado a pasar de contrabando...

    Director: Anna Gutto

    Género: Crimen

    Actores: Xavier Scott Evans

  • Paradise Highway (2022) PLACEBO Full HD 1080p Latino

    Paradise Highway (2022) PLACEBO Full HD 1080p Latino

    2022
    Paradise Highway (2022) PLACEBO Full HD 1080p Latino

    1h 55m 2022

    Descargar Paradise Highway (2022) PLACEBO Full HD 1080p Latino. Un camionero se ha visto obligado a pasar...

    Director: Anna Gutto

    Género: Crimen

    Actores: Xavier Scott Evans

  • Paradise Highway (2022) REMUX 1080p Latino

    Paradise Highway (2022) REMUX 1080p Latino

    2022
    Paradise Highway (2022) REMUX 1080p Latino

    1h 55m 2022

    Descargar Paradise Highway (2022) REMUX 1080p Latino. Un camionero se ha visto obligado a pasar de contrabando...

    Director: Anna Gutto

    Género: Crimen

    Actores: Xavier Scott Evans

  • Shotgun Wedding (2022) AMZN WEB-DL 1080p Latino

    Shotgun Wedding (2022) AMZN WEB-DL 1080p Latino

    2022
    Shotgun Wedding (2022) AMZN WEB-DL 1080p Latino

    1h 41m 2022

    Darcy y Tom reúnen a sus familias para la boda de destino definitiva, pero cuando toman como rehenes...

    Director: Jason Moore

    Género: Acción

    Actores: Steve Coulter

descargar Tenet (2020) IMAX REMUX 1080p Latino-CMHDD Full 1080p 1080p gratis, Tenet (2020) IMAX REMUX 1080p Latino-CMHDD Full 1080p mega 1 link, Tenet (2020) IMAX REMUX 1080p Latino-CMHDD Full 1080p pelicula completa, descargar Tenet (2020) IMAX REMUX 1080p Latino-CMHDD Full 1080p gratis en mega.

Tenet (2020) IMAX REMUX 1080p Latino-CMHDD pelicula full hd, Tenet (2020) IMAX REMUX 1080p Latino-CMHDD mega latino, Tenet (2020) IMAX REMUX 1080p Latino-CMHDD 4k latino, Tenet (2020) IMAX REMUX 1080p Latino-CMHDD pelicula completa, Tenet (2020) IMAX REMUX 1080p Latino-CMHDD descargar gratis, descargar Tenet (2020) IMAX REMUX 1080p Latino-CMHDD pelicula latino, Tenet (2020) IMAX REMUX 1080p Latino-CMHDD 1 link mega, Tenet (2020) IMAX REMUX 1080p Latino-CMHDD 1 link google drive, Tenet (2020) IMAX REMUX 1080p Latino-CMHDD hd 1080p latino.
Comentarios 0