Teen Titans Go Ven Space Jam (2021) Web-DL 1080p Latino

50 vistas
1 estrella2 estrellas3 estrellas4 estrellas5 estrellas (1 votos, promedio: 5,00 de 5)
Cargando...

Información de Teen Titans Go Ven Space Jam (2021) Web-DL 1080p Latino

Datos de la película

  • Calidad: WEBDL
  • Audio: Español Latino AC3 5.1 WEB-DL - Ingles AC3 5.1 WEB-DL
  • Subtitulos: Español Latino SRT- FORZADOS SRT
  • Resolución: 1916x1076p
  • Formato: MKV
  • Codec: H.264
  • Encoder: CinemaniaHD
  • Mediainfo: Clic para Mostrar Datos Ver
  • Teen Titans Go Ven Space Jam (2021) WebDL 1080p Latino.mkv
    Format                      : Matroska
    Format version              : Version 4
    File size                   : 4.25 GiB
    Duration                    : 1 h 23 min
    Overall bit rate            : 7 295 kb/s
    Movie name                  : Teen Titans Go See Space Jam (2021) CinemaniaHDD.Net
    Encoded date                : UTC 2021-07-27 15:04:53
    Writing application         : mkvmerge v56.1.0 ('My Friend') 64-bit
    Writing library             : libebml v1.4.2 + libmatroska v1.6.4
    Attachments                 : CINEMANIAHD.png

    Video
    ID                          : 1
    Format                      : AVC
    Format/Info                 : Advanced Video Codec
    Format profile              : High@L4
    Format settings             : CABAC / 4 Ref Frames
    Format settings, CABAC      : Yes
    Format settings, Reference  : 4 frames
    Codec ID                    : V_MPEG4/ISO/AVC
    Duration                    : 1 h 23 min
    Bit rate                    : 6 524 kb/s
    Width                       : 1 916 pixels
    Height                      : 1 076 pixels
    Display aspect ratio        : 16:9
    Frame rate mode             : Constant
    Frame rate                  : 23.976 (24000/1001) FPS
    Color space                 : YUV
    Chroma subsampling          : 4:2:0
    Bit depth                   : 8 bits
    Scan type                   : Progressive
    Bits/(Pixel*Frame)          : 0.132
    Stream size                 : 3.80 GiB (89%)
    Title                       : WEB HD1080p [CinemaniaHDD]
    Default                     : Yes
    Forced                      : No
    Color range                 : Limited
    Color primaries             : BT.709
    Transfer characteristics    : BT.709
    Matrix coefficients         : BT.709

    Audio #1
    ID                          : 2
    Format                      : AC-3
    Format/Info                 : Audio Coding 3
    Commercial name             : Dolby Digital
    Codec ID                    : A_AC3
    Duration                    : 1 h 23 min
    Bit rate mode               : Constant
    Bit rate                    : 384 kb/s
    Channel(s)                  : 6 channels
    Channel layout              : L R C LFE Ls Rs
    Sampling rate               : 48.0 kHz
    Frame rate                  : 31.250 FPS (1536 SPF)
    Compression mode            : Lossy
    Stream size                 : 229 MiB (5%)
    Title                       : Español Latino [CinemaniaHDD]
    Language                    : Spanish
    Service kind                : Complete Main
    Default                     : Yes
    Forced                      : No

    Audio #2
    ID                          : 3
    Format                      : AC-3
    Format/Info                 : Audio Coding 3
    Commercial name             : Dolby Digital
    Codec ID                    : A_AC3
    Duration                    : 1 h 23 min
    Bit rate mode               : Constant
    Bit rate                    : 384 kb/s
    Channel(s)                  : 6 channels
    Channel layout              : L R C LFE Ls Rs
    Sampling rate               : 48.0 kHz
    Frame rate                  : 31.250 FPS (1536 SPF)
    Compression mode            : Lossy
    Stream size                 : 229 MiB (5%)
    Title                       : Ingles [CinemaniaHDD]
    Language                    : English
    Service kind                : Complete Main
    Default                     : No
    Forced                      : No

    Text #1
    ID                          : 4
    Format                      : UTF-8
    Codec ID                    : S_TEXT/UTF8
    Codec ID/Info               : UTF-8 Plain Text
    Duration                    : 1 h 20 min
    Bit rate                    : 3 b/s
    Count of elements           : 49
    Stream size                 : 1.82 KiB (0%)
    Title                       : Forzados-SRT [CinemaniaHDD]
    Language                    : Spanish
    Default                     : Yes
    Forced                      : No

    Text #2
    ID                          : 5
    Format                      : UTF-8
    Codec ID                    : S_TEXT/UTF8
    Codec ID/Info               : UTF-8 Plain Text
    Duration                    : 1 h 22 min
    Bit rate                    : 69 b/s
    Count of elements           : 1355
    Stream size                 : 41.9 KiB (0%)
    Title                       : Español-SRT [CinemaniaHDD]
    Language                    : Spanish
    Default                     : No
    Forced                      : No

    Text #3
    ID                          : 6
    Format                      : UTF-8
    Codec ID                    : S_TEXT/UTF8
    Codec ID/Info               : UTF-8 Plain Text
    Duration                    : 1 h 22 min
    Bit rate                    : 68 b/s
    Count of elements           : 1412
    Stream size                 : 41.1 KiB (0%)
    Title                       : Ingles-SRT [CinemaniaHDD]
    Language                    : English
    Default                     : No
    Forced                      : No

  • Peso: 4.25 GiB

Sinopsis

Descargar Teen Titans Go Ven Space Jam (2021) Web-DL 1080p Latino. Los Jóvenes Titanes son visitados por los Nerdlucks, los villanos de Space Jam que intentaron capturar a Michael Jordan y los Looney Tunes. Asombrado de descubrir que sus compañeros Titanes nunca han visto Space Jam, Cyborg organiza una fiesta de observación exclusiva. Por supuesto, si los Titanes están viendo una película, no espere que el silencio sea dorado. Raven y Starfire brindan el comentario, Cyborg presenta los hechos divertidos, Beast Boy señala los tiros a tope y Robin, pero Robin no confía en sus nuevos amigos alienígenas. ¿Están los Nerdlucks aquí para asistir a una fiesta de vigilancia inocente, o tienen motivos más siniestros bajo la manga?

Ficha técnica

  • Titulo original: Teen Titans Go! See Space Jam
  • Fecha de lanzamiento: 20-06-2021
  • Director: Peter Rida Michail
  • Género: Animación, Comedia
  • Puntuación: 5.0 1 votos
  • Duración:
    1h 20m

Video trailer de la película

Enlaces de descarga

Rip de Bluray

Descargar Teen Titans Go Ven Space Jam (2021) Web-DL 1080p Latino




Aportes de DPeliculasHDmega la pass es:dpeliculashdmega.org Aportes de CinemaniaHD la pass es:cinemaniahdd.com
Guardado en : Animación , Comedia

Películas relacionadas

Teen Titans Go Ven Space Jam (2021) Web-DL 1080p Latino pelicula full hd, Teen Titans Go Ven Space Jam (2021) Web-DL 1080p Latino mega latino, Teen Titans Go Ven Space Jam (2021) Web-DL 1080p Latino 4k latino, Teen Titans Go Ven Space Jam (2021) Web-DL 1080p Latino pelicula completa, Teen Titans Go Ven Space Jam (2021) Web-DL 1080p Latino descargar gratis, descargar Teen Titans Go Ven Space Jam (2021) Web-DL 1080p Latino pelicula latino, Teen Titans Go Ven Space Jam (2021) Web-DL 1080p Latino 1 link mega, Teen Titans Go Ven Space Jam (2021) Web-DL 1080p Latino 1 link google drive, Teen Titans Go Ven Space Jam (2021) Web-DL 1080p Latino hd 1080p latino.
Comentarios 0