×

¿Problemas para descargar con Mozilla, EDGE? Deshabilita la opción "Abrir vinculos en una pestaña nueva" tal como lo muestra ésta imagen.

Ted Bundy: Durmiendo con el asesino (2019) REMUX 1080p Latino

709 vistas

Información de Ted Bundy: Durmiendo con el asesino (2019) REMUX 1080p Latino

Datos de la película

  • Calidad: Full 1080p
  • Audio: Español Latino AC3 5.1 DVD - Ingles DTS 5.1 BLURAY
  • Subtitulos: Español Latino SRT- FORZADOS SRT
  • Resolución: 1920x1080p
  • Formato: MKV
  • Codec: H.264
  • Encoder: FGT
  • Mediainfo: Clic para Mostrar Datos Ver
  • Ted Bundy (2019) REMUX 1080p Latino-CMHDD.mkv
    Format                      : Matroska
    Format version              : Version 4
    File size                   : 17.2 GiB
    Duration                    : 1 h 50 min
    Overall bit rate mode       : Variable
    Overall bit rate            : 22.4 Mb/s
    Movie name                  : CinemaniaHDD.Net
    Encoded date                : UTC 2019-11-13 03:35:19
    Writing application         : mkvmerge v38.0.0 ('The Silent Type') 64-bit
    Writing library             : libebml v1.3.9 + libmatroska v1.5.2
    Cover                       : Yes
    Attachments                 : CINEMANIAHD.png

    Video
    ID                          : 1
    Format                      : AVC
    Format/Info                 : Advanced Video Codec
    Format profile              : High@L4.1
    Format settings             : CABAC / 4 Ref Frames
    Format settings, CABAC      : Yes
    Format settings, ReFrames   : 4 frames
    Codec ID                    : V_MPEG4/ISO/AVC
    Duration                    : 1 h 50 min
    Bit rate mode               : Variable
    Bit rate                    : 19.9 Mb/s
    Maximum bit rate            : 38.0 Mb/s
    Width                       : 1 920 pixels
    Height                      : 1 080 pixels
    Display aspect ratio        : 16:9
    Frame rate mode             : Constant
    Frame rate                  : 23.976 (24000/1001) FPS
    Color space                 : YUV
    Chroma subsampling          : 4:2:0
    Bit depth                   : 8 bits
    Scan type                   : Progressive
    Bits/(Pixel*Frame)          : 0.400
    Stream size                 : 15.3 GiB (89%)
    Title                       : Full HD1080p [REMUX]
    Default                     : Yes
    Forced                      : No

    Audio #1
    ID                          : 2
    Format                      : AC-3
    Format/Info                 : Audio Coding 3
    Commercial name             : Dolby Digital
    Codec ID                    : A_AC3
    Duration                    : 1 h 50 min
    Bit rate mode               : Constant
    Bit rate                    : 448 kb/s
    Channel(s)                  : 6 channels
    Channel layout              : L R C LFE Ls Rs
    Sampling rate               : 48.0 kHz
    Frame rate                  : 31.250 FPS (1536 SPF)
    Bit depth                   : 16 bits
    Compression mode            : Lossy
    Stream size                 : 353 MiB (2%)
    Title                       : AC3_5.1_DVD_Esp
    Language                    : Spanish
    Service kind                : Complete Main
    Default                     : Yes
    Forced                      : Yes

    Audio #2
    ID                          : 3
    Format                      : DTS XBR
    Format/Info                 : Digital Theater Systems
    Commercial name             : DTS-HD High Resolution Audio
    Codec ID                    : A_DTS
    Duration                    : 1 h 50 min
    Bit rate mode               : Constant
    Bit rate                    : 2 046 kb/s
    Channel(s)                  : 6 channels
    Channel layout              : C L R Ls Rs LFE
    Sampling rate               : 48.0 kHz
    Frame rate                  : 93.750 FPS (512 SPF)
    Bit depth                   : 24 bits
    Compression mode            : Lossy
    Stream size                 : 1.58 GiB (9%)
    Title                       : DTS-HD_5.1_Bluay_Eng
    Language                    : English
    Default                     : No
    Forced                      : No

    Text #1
    ID                          : 4
    Format                      : UTF-8
    Codec ID                    : S_TEXT/UTF8
    Codec ID/Info               : UTF-8 Plain Text
    Duration                    : 1 h 44 min
    Bit rate                    : 4 b/s
    Count of elements           : 81
    Stream size                 : 3.11 KiB (0%)
    Title                       : Sub_Forzados
    Language                    : Spanish
    Default                     : Yes
    Forced                      : Yes

    Text #2
    ID                          : 5
    Format                      : UTF-8
    Codec ID                    : S_TEXT/UTF8
    Codec ID/Info               : UTF-8 Plain Text
    Duration                    : 1 h 45 min
    Bit rate                    : 67 b/s
    Count of elements           : 1481
    Stream size                 : 51.8 KiB (0%)
    Title                       : Sub_Esp
    Language                    : Spanish
    Default                     : No
    Forced                      : No

    Menu
    00:00:00.000                : en:Chapter 01
    00:07:39.625                : en:Chapter 02
    00:15:31.680                : en:Chapter 03
    00:22:05.407                : en:Chapter 04
    00:29:57.587                : en:Chapter 05
    00:36:14.088                : en:Chapter 06
    00:44:34.922                : en:Chapter 07
    00:52:50.167                : en:Chapter 08
    01:00:27.624                : en:Chapter 09
    01:07:39.430                : en:Chapter 10
    01:13:04.671                : en:Chapter 11
    01:20:18.522                : en:Chapter 12
    01:26:32.020                : en:Chapter 13
    01:33:11.043                : en:Chapter 14
    01:42:35.941                : en:Chapter 15

  • Peso: 17.2 GiB

Sinopsis

Descargar Ted Bundy: Durmiendo con el asesino (2019) REMUX 1080p Latino. Ted Bundy fue uno de los asesinos en serie más peligroso de los años 70 pero, además de asesino fue un secuestrador, violador, ladrón, necrófilo… Su novia, Elizabeth Kloepfer, se convirtió en una de sus más fieles defensoras, negándose a creer la verdad sobre él durante años. La historia de sus numerosos y terribles crimenes contada a través de los ojos de Elizabeth.

Ficha técnica

  • Titulo original: Extremely Wicked, Shockingly Evil and Vile
  • Fecha de lanzamiento: 02-05-2019 (United States of America)
  • Director: Joe Berlinger
  • Género: Crimen, Drama, Remux, Suspenso

Video trailer de la película

Enlaces de descarga

Rip de Bluray

Descargar Ted Bundy: Durmiendo con el asesino (2019) REMUX 1080p Latino




Aportes de DPeliculasHDmega la pass es:dpeliculashdmega.org Aportes de CinemaniaHD la pass es:cinemaniahdd.com
Guardado en : Crimen , Drama , Remux , Suspenso

Películas relacionadas

descargar Ted Bundy: Durmiendo con el asesino (2019) REMUX 1080p Latino Full 1080p 1080p gratis, Ted Bundy: Durmiendo con el asesino (2019) REMUX 1080p Latino Full 1080p mega 1 link, Ted Bundy: Durmiendo con el asesino (2019) REMUX 1080p Latino Full 1080p pelicula completa, descargar Ted Bundy: Durmiendo con el asesino (2019) REMUX 1080p Latino Full 1080p gratis en mega.

Ted Bundy: Durmiendo con el asesino (2019) REMUX 1080p Latino pelicula full hd, Ted Bundy: Durmiendo con el asesino (2019) REMUX 1080p Latino mega latino, Ted Bundy: Durmiendo con el asesino (2019) REMUX 1080p Latino 4k latino, Ted Bundy: Durmiendo con el asesino (2019) REMUX 1080p Latino pelicula completa, Ted Bundy: Durmiendo con el asesino (2019) REMUX 1080p Latino descargar gratis, descargar Ted Bundy: Durmiendo con el asesino (2019) REMUX 1080p Latino pelicula latino, Ted Bundy: Durmiendo con el asesino (2019) REMUX 1080p Latino 1 link mega, Ted Bundy: Durmiendo con el asesino (2019) REMUX 1080p Latino 1 link google drive, Ted Bundy: Durmiendo con el asesino (2019) REMUX 1080p Latino hd 1080p latino.
Comentarios 0