×

¿Problemas para descargar con Mozilla, EDGE? Deshabilita la opción "Abrir vinculos en una pestaña nueva" tal como lo muestra ésta imagen.

Ted Bundy: Durmiendo con el asesino (2019) Full HD 1080p Latino

2.394 vistas

Información de Ted Bundy: Durmiendo con el asesino (2019) Full HD 1080p Latino

Datos de la película

  • Calidad: Full 1080p
  • Audio: Español Latino AC3 5.1 DVD - Ingles DTS 5.1 BLURAY
  • Subtitulos: Español Latino SRT- FORZADOS SRT
  • Resolución: 1920x1080p
  • Formato: MKV
  • Codec: H.264
  • Encoder: CinemaniaHD
  • Mediainfo: Clic para Mostrar Datos Ver
  • Ted Bundy (2019) Full HD 1080p Latino-CMHDD.mkv
    Format                      : Matroska
    Format version              : Version 4
    File size                   : 4.78 GiB
    Duration                    : 1 h 50 min
    Overall bit rate            : 6 211 kb/s
    Movie name                  : CinemaniaHDD.Net
    Encoded date                : UTC 2019-11-13 03:31:44
    Writing application         : mkvmerge v38.0.0 ('The Silent Type') 64-bit
    Writing library             : libebml v1.3.9 + libmatroska v1.5.2
    Attachments                 : CINEMANIAHD.png

    Video
    ID                          : 1
    Format                      : AVC
    Format/Info                 : Advanced Video Codec
    Format profile              : High@L4.1
    Format settings             : CABAC / 4 Ref Frames
    Format settings, CABAC      : Yes
    Format settings, ReFrames   : 4 frames
    Codec ID                    : V_MPEG4/ISO/AVC
    Duration                    : 1 h 50 min
    Bit rate                    : 4 251 kb/s
    Width                       : 1 920 pixels
    Height                      : 1 080 pixels
    Display aspect ratio        : 16:9
    Frame rate mode             : Constant
    Frame rate                  : 23.976 (24000/1001) FPS
    Color space                 : YUV
    Chroma subsampling          : 4:2:0
    Bit depth                   : 8 bits
    Scan type                   : Progressive
    Bits/(Pixel*Frame)          : 0.086
    Stream size                 : 3.27 GiB (68%)
    Title                       : Full HD1080p [Bluray]
    Writing library             : x264 core 157 r2935 545de2f
    Encoding settings           : cabac=1 / ref=4 / deblock=1:0:0 / analyse=0x3:0x133 / me=tesa / subme=11 / psy=1 / psy_rd=1.00:0.00 / mixed_ref=1 / me_range=24 / chroma_me=1 / trellis=2 / 8x8dct=1 / cqm=0 / deadzone=21,11 / fast_pskip=0 / chroma_qp_offset=-2 / threads=34 / lookahead_threads=8 / sliced_threads=0 / nr=0 / decimate=1 / interlaced=0 / bluray_compat=0 / constrained_intra=0 / bframes=16 / b_pyramid=2 / b_adapt=2 / b_bias=0 / direct=3 / weightb=1 / open_gop=0 / weightp=2 / keyint=240 / keyint_min=24 / scenecut=40 / intra_refresh=0 / rc_lookahead=60 / rc=crf / mbtree=1 / crf=20.0 / qcomp=0.60 / qpmin=0 / qpmax=69 / qpstep=4 / vbv_maxrate=62500 / vbv_bufsize=78125 / crf_max=0.0 / nal_hrd=none / filler=0 / ip_ratio=1.40 / aq=1:1.00
    Default                     : Yes
    Forced                      : No
    Color range                 : Limited
    Color primaries             : BT.709
    Transfer characteristics    : BT.709
    Matrix coefficients         : BT.709

    Audio #1
    ID                          : 2
    Format                      : AC-3
    Format/Info                 : Audio Coding 3
    Commercial name             : Dolby Digital
    Codec ID                    : A_AC3
    Duration                    : 1 h 50 min
    Bit rate mode               : Constant
    Bit rate                    : 448 kb/s
    Channel(s)                  : 6 channels
    Channel layout              : L R C LFE Ls Rs
    Sampling rate               : 48.0 kHz
    Frame rate                  : 31.250 FPS (1536 SPF)
    Bit depth                   : 16 bits
    Compression mode            : Lossy
    Stream size                 : 353 MiB (7%)
    Title                       : AC3_5.1_DVD_Esp
    Language                    : Spanish
    Service kind                : Complete Main
    Default                     : Yes
    Forced                      : Yes

    Audio #2
    ID                          : 3
    Format                      : DTS
    Format/Info                 : Digital Theater Systems
    Codec ID                    : A_DTS
    Duration                    : 1 h 50 min
    Bit rate mode               : Constant
    Bit rate                    : 1 509 kb/s
    Channel(s)                  : 6 channels
    Channel layout              : C L R Ls Rs LFE
    Sampling rate               : 48.0 kHz
    Frame rate                  : 93.750 FPS (512 SPF)
    Bit depth                   : 24 bits
    Compression mode            : Lossy
    Stream size                 : 1.16 GiB (24%)
    Title                       : DTS_5.1_Bluray_Eng
    Language                    : English
    Default                     : No
    Forced                      : No

    Text #1
    ID                          : 4
    Format                      : UTF-8
    Codec ID                    : S_TEXT/UTF8
    Codec ID/Info               : UTF-8 Plain Text
    Duration                    : 1 h 44 min
    Bit rate                    : 4 b/s
    Count of elements           : 81
    Stream size                 : 3.11 KiB (0%)
    Title                       : Sub_Forzados
    Language                    : Spanish
    Default                     : Yes
    Forced                      : Yes

    Text #2
    ID                          : 5
    Format                      : UTF-8
    Codec ID                    : S_TEXT/UTF8
    Codec ID/Info               : UTF-8 Plain Text
    Duration                    : 1 h 45 min
    Bit rate                    : 67 b/s
    Count of elements           : 1481
    Stream size                 : 51.8 KiB (0%)
    Title                       : Sub_Esp
    Language                    : Spanish
    Default                     : No
    Forced                      : No

    Menu
    00:00:00.000                : :Chapter 1
    00:07:39.626                : :Chapter 2
    00:15:31.681                : :Chapter 3
    00:22:05.533                : :Chapter 4
    00:29:57.671                : :Chapter 5
    00:36:14.089                : :Chapter 6
    00:44:35.047                : :Chapter 7
    00:52:50.167                : :Chapter 8
    01:00:27.624                : :Chapter 9
    01:07:39.514                : :Chapter 10
    01:13:04.672                : :Chapter 11
    01:20:18.647                : :Chapter 12
    01:26:32.062                : :Chapter 13
    01:33:11.044                : :Chapter 14
    01:42:36.025                : :Chapter 15

  • Peso: 4.78 GiB

Sinopsis

Descargar Ted Bundy: Durmiendo con el asesino (2019) Full HD 1080p Latino. Ted Bundy fue uno de los asesinos en serie más peligroso de los años 70 pero, además de asesino fue un secuestrador, violador, ladrón, necrófilo… Su novia, Elizabeth Kloepfer, se convirtió en una de sus más fieles defensoras, negándose a creer la verdad sobre él durante años. La historia de sus numerosos y terribles crimenes contada a través de los ojos de Elizabeth.

Ficha técnica

Video trailer de la película

Enlaces de descarga

Rip de Bluray

Descargar Ted Bundy: Durmiendo con el asesino (2019) Full HD 1080p Latino




Aportes de DPeliculasHDmega la pass es:dpeliculashdmega.org Aportes de CinemaniaHD la pass es:cinemaniahdd.com

Películas relacionadas

descargar Ted Bundy: Durmiendo con el asesino (2019) Full HD 1080p Latino Full 1080p 1080p gratis, Ted Bundy: Durmiendo con el asesino (2019) Full HD 1080p Latino Full 1080p mega 1 link, Ted Bundy: Durmiendo con el asesino (2019) Full HD 1080p Latino Full 1080p pelicula completa, descargar Ted Bundy: Durmiendo con el asesino (2019) Full HD 1080p Latino Full 1080p gratis en mega.

Ted Bundy: Durmiendo con el asesino (2019) Full HD 1080p Latino pelicula full hd, Ted Bundy: Durmiendo con el asesino (2019) Full HD 1080p Latino mega latino, Ted Bundy: Durmiendo con el asesino (2019) Full HD 1080p Latino 4k latino, Ted Bundy: Durmiendo con el asesino (2019) Full HD 1080p Latino pelicula completa, Ted Bundy: Durmiendo con el asesino (2019) Full HD 1080p Latino descargar gratis, descargar Ted Bundy: Durmiendo con el asesino (2019) Full HD 1080p Latino pelicula latino, Ted Bundy: Durmiendo con el asesino (2019) Full HD 1080p Latino 1 link mega, Ted Bundy: Durmiendo con el asesino (2019) Full HD 1080p Latino 1 link google drive, Ted Bundy: Durmiendo con el asesino (2019) Full HD 1080p Latino hd 1080p latino.
Comentarios 0