×

¿Problemas para descargar con Mozilla, EDGE? Deshabilita la opción "Abrir vinculos en una pestaña nueva" tal como lo muestra ésta imagen.

Ted (2024) Primera Temporada PCOK WEB-DL 1080p Latino

110 vistas

Información de Ted (2024) Primera Temporada PCOK WEB-DL 1080p Latino

Datos de la película

  • Calidad: 1080p
  • Audio: Español Latino AC3 2.0 WEB-DL - Ingles AC3 5.1 WEB-DL
  • Subtitulos: Español Latino SRT- FORZADOS SRT
  • Resolución: 1920x1080
  • Formato: MKV
  • Codec: H.264
  • Encoder: cinemaniahdd
  • Mediainfo: Clic para Mostrar Datos Ver
  • ted T01E01 PCOK WEB-DL 1080p Latino [CNMNHDD].mkv
    Format                      : Matroska
    Format version              : Version 4
    File size                   : 2.87 GiB
    Duration                    : 50 min 46 s
    Overall bit rate            : 8 105 kb/s
    Movie name                  : ted S01E01 - Just Say Yes [1080p] - CinemaniaHDD.Net
    Encoded date                : UTC 2024-01-11 22:17:04
    Writing application         : mkvmerge v56.1.0 ('My Friend') 64-bit
    Writing library             : libebml v1.4.2 + libmatroska v1.6.4

    Video
    ID                          : 1
    Format                      : AVC
    Format/Info                 : Advanced Video Codec
    Format profile              : High@L4
    Format settings             : CABAC / 3 Ref Frames
    Format settings, CABAC      : Yes
    Format settings, Reference  : 3 frames
    Codec ID                    : V_MPEG4/ISO/AVC
    Duration                    : 50 min 46 s
    Bit rate                    : 7 814 kb/s
    Width                       : 1 920 pixels
    Height                      : 1 080 pixels
    Display aspect ratio        : 16:9
    Frame rate mode             : Constant
    Frame rate                  : 23.976 (24000/1001) FPS
    Color space                 : YUV
    Chroma subsampling          : 4:2:0
    Bit depth                   : 8 bits
    Scan type                   : Progressive
    Bits/(Pixel*Frame)          : 0.157
    Stream size                 : 2.77 GiB (96%)
    Title                       : CinemaniaHDD
    Writing library             : x264 core 164 r3095 baee400
    Encoding settings           : cabac=1 / ref=3 / deblock=1:0:0 / analyse=0x3:0x113 / me=umh / subme=7 / psy=1 / psy_rd=0.00:0.00 / mixed_ref=1 / me_range=16 / chroma_me=1 / trellis=1 / 8x8dct=1 / cqm=0 / deadzone=21,11 / fast_pskip=1 / chroma_qp_offset=0 / threads=34 / lookahead_threads=5 / sliced_threads=0 / nr=0 / decimate=1 / interlaced=0 / bluray_compat=0 / stitchable=1 / constrained_intra=0 / bframes=2 / b_pyramid=0 / b_adapt=1 / b_bias=0 / direct=1 / weightb=1 / open_gop=0 / weightp=2 / keyint=48 / keyint_min=4 / scenecut=0 / intra_refresh=0 / rc_lookahead=48 / rc=2pass / mbtree=1 / bitrate=7814 / ratetol=1.0 / qcomp=0.60 / qpmin=10 / qpmax=51 / qpstep=4 / cplxblur=20.0 / qblur=0.5 / vbv_maxrate=11729 / vbv_bufsize=11729 / nal_hrd=none / filler=0 / ip_ratio=1.41 / aq=1:1.00
    Default                     : Yes
    Forced                      : No
    Color range                 : Limited
    Color primaries             : BT.709
    Transfer characteristics    : BT.709
    Matrix coefficients         : BT.709

    Audio #1
    ID                          : 2
    Format                      : AAC LC
    Format/Info                 : Advanced Audio Codec Low Complexity
    Codec ID                    : A_AAC-2
    Duration                    : 50 min 46 s
    Bit rate                    : 96.0 kb/s
    Channel(s)                  : 2 channels
    Channel layout              : L R
    Sampling rate               : 48.0 kHz
    Frame rate                  : 46.875 FPS (1024 SPF)
    Compression mode            : Lossy
    Stream size                 : 34.8 MiB (1%)
    Title                       : Español Latino [CinemaniaHDD]
    Language                    : Spanish
    Default                     : Yes
    Forced                      : No

    Audio #2
    ID                          : 3
    Format                      : E-AC-3
    Format/Info                 : Enhanced AC-3
    Commercial name             : Dolby Digital Plus
    Codec ID                    : A_EAC3
    Duration                    : 50 min 46 s
    Bit rate mode               : Constant
    Bit rate                    : 192 kb/s
    Channel(s)                  : 6 channels
    Channel layout              : L R C LFE Ls Rs
    Sampling rate               : 48.0 kHz
    Frame rate                  : 31.250 FPS (1536 SPF)
    Compression mode            : Lossy
    Stream size                 : 69.7 MiB (2%)
    Title                       : Inglés [CinemaniaHDD]
    Language                    : English
    Service kind                : Complete Main
    Default                     : No
    Forced                      : No

    Text #1
    ID                          : 4
    Format                      : UTF-8
    Codec ID                    : S_TEXT/UTF8
    Codec ID/Info               : UTF-8 Plain Text
    Duration                    : 53 s 220 ms
    Bit rate                    : 8 b/s
    Count of elements           : 3
    Stream size                 : 56.0 Bytes (0%)
    Title                       : Forzados [CinemaniaHDD]
    Language                    : Spanish
    Default                     : Yes
    Forced                      : Yes

    Text #2
    ID                          : 5
    Format                      : UTF-8
    Codec ID                    : S_TEXT/UTF8
    Codec ID/Info               : UTF-8 Plain Text
    Duration                    : 50 min 38 s
    Bit rate                    : 92 b/s
    Count of elements           : 1064
    Stream size                 : 34.4 KiB (0%)
    Title                       : Español Latino [CinemaniaHDD]
    Language                    : Spanish
    Default                     : No
    Forced                      : No

    Text #3
    ID                          : 6
    Format                      : UTF-8
    Codec ID                    : S_TEXT/UTF8
    Codec ID/Info               : UTF-8 Plain Text
    Duration                    : 50 min 28 s
    Bit rate                    : 116 b/s
    Count of elements           : 1402
    Stream size                 : 43.0 KiB (0%)
    Title                       : Inglés [CinemaniaHDD]
    Language                    : English
    Default                     : No
    Forced                      : No

     

  • Peso: 2.87 GiB Aprox ---- 17 GiB in 7 Chapters.

Sinopsis

Es 1993 y el momento de fama del oso Ted ha pasado, dejándolo viviendo con su mejor amigo, John Bennett, de 16 años, que vive en una casa de clase trabajadora de Boston con sus padres y su primo. Puede que Ted no sea la mejor influencia para John, pero a fin de cuentas, está dispuesto a arriesgarse para ayudar a su amigo y su familia. Precuela de las películas de “Ted”.

Ficha técnica

Video trailer de la película

Enlaces de descarga

Rip de Bluray

Descargar Ted (2024) Primera Temporada PCOK WEB-DL 1080p Latino




Aportes de DPeliculasHDmega la pass es:dpeliculashdmega.org Aportes de CinemaniaHD la pass es:cinemaniahdd.com Aportes recientes:cinemaniahdd.net
Guardado en : Comedia , Series

Películas relacionadas

descargar Ted (2024) Primera Temporada PCOK WEB-DL 1080p Latino 1080p 1080p gratis, Ted (2024) Primera Temporada PCOK WEB-DL 1080p Latino 1080p mega 1 link, Ted (2024) Primera Temporada PCOK WEB-DL 1080p Latino 1080p serie completa, descargar Ted (2024) Primera Temporada PCOK WEB-DL 1080p Latino 1080p gratis en mega.

Ted (2024) Primera Temporada PCOK WEB-DL 1080p Latino pelicula full hd, Ted (2024) Primera Temporada PCOK WEB-DL 1080p Latino mega latino, Ted (2024) Primera Temporada PCOK WEB-DL 1080p Latino 4k latino, Ted (2024) Primera Temporada PCOK WEB-DL 1080p Latino pelicula completa, Ted (2024) Primera Temporada PCOK WEB-DL 1080p Latino descargar gratis, descargar Ted (2024) Primera Temporada PCOK WEB-DL 1080p Latino pelicula latino, Ted (2024) Primera Temporada PCOK WEB-DL 1080p Latino 1 link mega, Ted (2024) Primera Temporada PCOK WEB-DL 1080p Latino 1 link google drive, Ted (2024) Primera Temporada PCOK WEB-DL 1080p Latino hd 1080p latino.
Comentarios 0