×

¿Problemas para descargar con Mozilla, EDGE? Deshabilita la opción "Abrir vinculos en una pestaña nueva" tal como lo muestra ésta imagen.

Ted (2012) [UNRATED] Full HD 1080p Latino – CMHDD

512 vistas

Información de Ted (2012) [UNRATED] Full HD 1080p Latino – CMHDD

Datos de la película

  • Calidad: Full 1080p
  • Audio: Español Latino DTS 5.1 BLURAY - Ingles DTS-HD 5.1 BLURAY
  • Subtitulos: Español Latino SRT- FORZADOS SRT
  • Resolución: 1920x1080p
  • Formato: MKV
  • Codec: H.264
  • Encoder: Dracarys
  • Mediainfo: Clic para Mostrar Datos Ver
  • Format                      : Matroska
    Format version              : Version 4
    File size                   : 9.52 GiB
    Duration                    : 1 h 52 min
    Overall bit rate mode       : Variable
    Overall bit rate            : 12.1 Mb/s
    Movie name                  : Ted (2012) [UNRATED] Full HD 1080p Latino - CMHDD
    Encoded date                : UTC 2020-11-23 01:24:23
    Writing application         : mkvmerge v51.0.0 ('I Wish') 64-bit
    Writing library             : libebml v1.4.0 + libmatroska v1.6.2

    Video
    ID                          : 1
    Format                      : AVC
    Format/Info                 : Advanced Video Codec
    Format profile              : High@L4.1
    Format settings             : CABAC / 4 Ref Frames
    Format settings, CABAC      : Yes
    Format settings, Reference  : 4 frames
    Codec ID                    : V_MPEG4/ISO/AVC
    Duration                    : 1 h 52 min
    Bit rate                    : 7 957 kb/s
    Width                       : 1 920 pixels
    Height                      : 1 080 pixels
    Display aspect ratio        : 16:9
    Frame rate mode             : Constant
    Frame rate                  : 23.976 (24000/1001) FPS
    Color space                 : YUV
    Chroma subsampling          : 4:2:0
    Bit depth                   : 8 bits
    Scan type                   : Progressive
    Bits/(Pixel*Frame)          : 0.160
    Stream size                 : 6.24 GiB (66%)
    Writing library             : x264 core 157 r2935 545de2f
    Encoding settings           : cabac=1 / ref=4 / deblock=1:0:0 / analyse=0x3:0x133 / me=tesa / subme=11 / psy=1 / psy_rd=1.00:0.00 / mixed_ref=1 / me_range=24 / chroma_me=1 / trellis=2 / 8x8dct=1 / cqm=0 / deadzone=21,11 / fast_pskip=0 / chroma_qp_offset=-2 / threads=24 / lookahead_threads=6 / sliced_threads=0 / nr=0 / decimate=1 / interlaced=0 / bluray_compat=0 / constrained_intra=0 / bframes=16 / b_pyramid=2 / b_adapt=2 / b_bias=0 / direct=3 / weightb=1 / open_gop=0 / weightp=2 / keyint=240 / keyint_min=24 / scenecut=40 / intra_refresh=0 / rc_lookahead=60 / rc=crf / mbtree=1 / crf=20.0 / qcomp=0.60 / qpmin=0 / qpmax=69 / qpstep=4 / vbv_maxrate=62500 / vbv_bufsize=78125 / crf_max=0.0 / nal_hrd=none / filler=0 / ip_ratio=1.40 / aq=1:1.00
    Default                     : Yes
    Forced                      : No
    Color range                 : Limited
    Color primaries             : BT.709
    Transfer characteristics    : BT.709
    Matrix coefficients         : BT.709

    Audio #1
    ID                          : 2
    Format                      : DTS
    Format/Info                 : Digital Theater Systems
    Codec ID                    : A_DTS
    Duration                    : 1 h 52 min
    Bit rate mode               : Constant
    Bit rate                    : 768 kb/s
    Channel(s)                  : 6 channels
    Channel layout              : C L R Ls Rs LFE
    Sampling rate               : 48.0 kHz
    Frame rate                  : 93.750 FPS (512 SPF)
    Bit depth                   : 24 bits
    Compression mode            : Lossy
    Stream size                 : 617 MiB (6%)
    Language                    : Spanish
    Default                     : Yes
    Forced                      : No

    Audio #2
    ID                          : 3
    Format                      : DTS XLL
    Format/Info                 : Digital Theater Systems
    Commercial name             : DTS-HD Master Audio
    Codec ID                    : A_DTS
    Duration                    : 1 h 52 min
    Bit rate mode               : Variable
    Bit rate                    : 3 396 kb/s
    Channel(s)                  : 6 channels
    Channel layout              : C L R Ls Rs LFE
    Sampling rate               : 48.0 kHz
    Frame rate                  : 93.750 FPS (512 SPF)
    Bit depth                   : 24 bits
    Compression mode            : Lossless
    Stream size                 : 2.66 GiB (28%)
    Language                    : English
    Default                     : No
    Forced                      : No

    Text #1
    ID                          : 4
    Format                      : PGS
    Muxing mode                 : zlib
    Codec ID                    : S_HDMV/PGS
    Codec ID/Info               : Picture based subtitle format used on BDs/HD-DVDs
    Duration                    : 1 h 46 min
    Bit rate                    : 40.2 kb/s
    Count of elements           : 3402
    Stream size                 : 30.5 MiB (0%)
    Language                    : Spanish
    Default                     : No
    Forced                      : No

    Text #2
    ID                          : 5
    Format                      : PGS
    Muxing mode                 : zlib
    Codec ID                    : S_HDMV/PGS
    Codec ID/Info               : Picture based subtitle format used on BDs/HD-DVDs
    Duration                    : 1 h 36 min
    Bit rate                    : 317 b/s
    Count of elements           : 68
    Stream size                 : 224 KiB (0%)
    Language                    : Spanish
    Default                     : No
    Forced                      : No

    Text #3
    ID                          : 6
    Format                      : UTF-8
    Codec ID                    : S_TEXT/UTF8
    Codec ID/Info               : UTF-8 Plain Text
    Duration                    : 1 h 35 min
    Bit rate                    : 0 b/s
    Count of elements           : 12
    Stream size                 : 303 Bytes (0%)
    Language                    : Spanish
    Default                     : Yes
    Forced                      : No

    Menu
    00:00:00.000                : :Chapter 1
    00:04:15.255                : :Chapter 2
    00:11:35.111                : :Chapter 3
    00:17:18.246                : :Chapter 4
    00:21:47.598                : :Chapter 5
    00:28:31.460                : :Chapter 6
    00:34:01.456                : :Chapter 7
    00:37:43.636                : :Chapter 8
    00:44:59.280                : :Chapter 9
    00:52:13.297                : :Chapter 10
    00:57:34.993                : :Chapter 11
    01:03:45.447                : :Chapter 12
    01:08:43.411                : :Chapter 13
    01:13:21.689                : :Chapter 14
    01:18:09.059                : :Chapter 15
    01:22:39.663                : :Chapter 16
    01:29:17.269                : :Chapter 17
    01:37:26.632                : :Chapter 18
    01:41:08.813                : :Chapter 19
    01:46:46.775                : :Chapter 20

  • Peso: 9.52 GiB

Sinopsis

La historia se centra en las aventuras de un hombre que ve cómo su osito de peluche de la infancia adquiere vida debido a un deseo que formuló cuando era pequeño, convirtiéndose el peluche en un gandul deslenguado que alterará por completo su vida y pondrá en peligro su relación amorosa con su pareja, debido a su comportamiento totalmente salvaje y su conducta fuera de toda norma social.

Ficha técnica

Video trailer de la película

Enlaces de descarga

Rip de Bluray

Descargar Ted (2012) [UNRATED] Full HD 1080p Latino – CMHDD




Aportes de DPeliculasHDmega la pass es:dpeliculashdmega.org Aportes de CinemaniaHD la pass es:cinemaniahdd.com

Películas relacionadas

  • Hombre de familia (2000) REMUX 1080p Latino

    Hombre de familia (2000) REMUX 1080p Latino

    2000
    Hombre de familia (2000) REMUX 1080p Latino

    2h 1m 2000

    Descargar Hombre de familia (2000) REMUX 1080p Latino. Jack Campbell es un egocéntrico broker de Wall...

    Director: Robert Schroer

    Género: Comedia

    Actores: Wass Stevens

  • Te Amo Brother (2009) REMUX 1080p Latino

    Te Amo Brother (2009) REMUX 1080p Latino

    2009
    Te Amo Brother (2009) REMUX 1080p Latino

    1h 45m 2009

    Descargar Te Amo Brother (2009) REMUX 1080p Latino. Peter Klaven (Paul Rudd) es un joven que vive muy...

    Director: Scott Robertson

    Género: Comedia

    Actores: Vicki Davis

  • Asústame (2020) HD 1080p Latino

    Asústame (2020) HD 1080p Latino

    2020
    Asústame (2020) HD 1080p Latino

    1h 44m 2020

    Descargar Asústame (2020) HD 1080p Latino. Durante un corte de energía, dos extraños cuentan historias...

    Director: Josh Ruben

    Género: Comedia

    Actores: Rebecca Drysdale

descargar Ted (2012) [UNRATED] Full HD 1080p Latino – CMHDD Full 1080p 1080p gratis, Ted (2012) [UNRATED] Full HD 1080p Latino – CMHDD Full 1080p mega 1 link, Ted (2012) [UNRATED] Full HD 1080p Latino – CMHDD Full 1080p pelicula completa, descargar Ted (2012) [UNRATED] Full HD 1080p Latino – CMHDD Full 1080p gratis en mega.

Ted (2012) [UNRATED] Full HD 1080p Latino – CMHDD pelicula full hd, Ted (2012) [UNRATED] Full HD 1080p Latino – CMHDD mega latino, Ted (2012) [UNRATED] Full HD 1080p Latino – CMHDD 4k latino, Ted (2012) [UNRATED] Full HD 1080p Latino – CMHDD pelicula completa, Ted (2012) [UNRATED] Full HD 1080p Latino – CMHDD descargar gratis, descargar Ted (2012) [UNRATED] Full HD 1080p Latino – CMHDD pelicula latino, Ted (2012) [UNRATED] Full HD 1080p Latino – CMHDD 1 link mega, Ted (2012) [UNRATED] Full HD 1080p Latino – CMHDD 1 link google drive, Ted (2012) [UNRATED] Full HD 1080p Latino – CMHDD hd 1080p latino.
Comentarios 0