×

¿Problemas para descargar con Mozilla, EDGE? Deshabilita la opción "Abrir vinculos en una pestaña nueva" tal como lo muestra ésta imagen.

Ted 2 (2015) [UNRATED] REMUX 1080p Latino – CMHDD

254 vistas

Información de Ted 2 (2015) [UNRATED] REMUX 1080p Latino – CMHDD

Datos de la película

  • Calidad: Full 1080p
  • Audio: Español Latino AC3 5.1 DVD - Ingles DTS 5.1 BLURAY
  • Subtitulos: Español Latino SRT- FORZADOS SRT
  • Resolución: 1920x1080p
  • Formato: MKV
  • Codec: H.264
  • Encoder: Dracarys
  • Mediainfo: Clic para Mostrar Datos Ver
  • Format                      : Matroska
    Format version              : Version 4
    File size                   : 25.8 GiB
    Duration                    : 2 h 5 min
    Overall bit rate mode       : Variable
    Overall bit rate            : 29.4 Mb/s
    Movie name                  : Ted 2 (2015) [UNRATED] REMUX 1080p Latino - CMHDD
    Encoded date                : UTC 2020-11-23 04:43:01
    Writing application         : mkvmerge v51.0.0 ('I Wish') 64-bit
    Writing library             : libebml v1.4.0 + libmatroska v1.6.2

    Video
    ID                          : 1
    Format                      : AVC
    Format/Info                 : Advanced Video Codec
    Format profile              : High@L4.1
    Format settings             : CABAC / 4 Ref Frames
    Format settings, CABAC      : Yes
    Format settings, Reference  : 4 frames
    Codec ID                    : V_MPEG4/ISO/AVC
    Duration                    : 2 h 5 min
    Bit rate mode               : Variable
    Bit rate                    : 27.2 Mb/s
    Maximum bit rate            : 35.0 Mb/s
    Width                       : 1 920 pixels
    Height                      : 1 080 pixels
    Display aspect ratio        : 16:9
    Frame rate mode             : Constant
    Frame rate                  : 23.976 (24000/1001) FPS
    Color space                 : YUV
    Chroma subsampling          : 4:2:0
    Bit depth                   : 8 bits
    Scan type                   : Progressive
    Bits/(Pixel*Frame)          : 0.548
    Stream size                 : 23.9 GiB (93%)
    Language                    : English
    Default                     : Yes
    Forced                      : No

    Audio #1
    ID                          : 2
    Format                      : AC-3
    Format/Info                 : Audio Coding 3
    Commercial name             : Dolby Digital
    Codec ID                    : A_AC3
    Duration                    : 2 h 5 min
    Bit rate mode               : Constant
    Bit rate                    : 640 kb/s
    Channel(s)                  : 6 channels
    Channel layout              : L R C LFE Ls Rs
    Sampling rate               : 48.0 kHz
    Frame rate                  : 31.250 FPS (1536 SPF)
    Compression mode            : Lossy
    Stream size                 : 576 MiB (2%)
    Language                    : Spanish
    Service kind                : Complete Main
    Default                     : Yes
    Forced                      : Yes

    Audio #2
    ID                          : 3
    Format                      : DTS
    Format/Info                 : Digital Theater Systems
    Codec ID                    : A_DTS
    Duration                    : 2 h 5 min
    Bit rate mode               : Constant
    Bit rate                    : 1 509 kb/s
    Channel(s)                  : 6 channels
    Channel layout              : C L R Ls Rs LFE
    Sampling rate               : 48.0 kHz
    Frame rate                  : 93.750 FPS (512 SPF)
    Bit depth                   : 24 bits
    Compression mode            : Lossy
    Stream size                 : 1.33 GiB (5%)
    Language                    : English
    Default                     : No
    Forced                      : No

    Text #1
    ID                          : 4
    Format                      : UTF-8
    Codec ID                    : S_TEXT/UTF8
    Codec ID/Info               : UTF-8 Plain Text
    Duration                    : 1 h 39 min
    Bit rate                    : 1 b/s
    Count of elements           : 23
    Stream size                 : 1.03 KiB (0%)
    Language                    : Spanish
    Default                     : Yes
    Forced                      : Yes

    Text #2
    ID                          : 5
    Format                      : UTF-8
    Codec ID                    : S_TEXT/UTF8
    Codec ID/Info               : UTF-8 Plain Text
    Duration                    : 2 h 4 min
    Bit rate                    : 97 b/s
    Count of elements           : 2300
    Stream size                 : 89.3 KiB (0%)
    Language                    : Spanish
    Default                     : No
    Forced                      : No

    Menu
    00:00:00.000                : en:Chapter 01
    00:09:08.005                : en:Chapter 02
    00:17:30.507                : en:Chapter 03
    00:22:03.905                : en:Chapter 04
    00:30:27.408                : en:Chapter 05
    00:39:22.401                : en:Chapter 06
    00:48:15.225                : en:Chapter 07
    00:53:39.549                : en:Chapter 08
    01:00:09.355                : en:Chapter 09
    01:04:54.056                : en:Chapter 10
    01:10:15.044                : en:Chapter 11
    01:16:16.238                : en:Chapter 12
    01:20:26.780                : en:Chapter 13
    01:26:08.830                : en:Chapter 14
    01:32:42.682                : en:Chapter 15
    01:39:39.473                : en:Chapter 16
    01:45:14.224                : en:Chapter 17
    01:49:59.217                : en:Chapter 18
    01:54:50.216                : en:Chapter 19
    01:58:43.491                : en:Chapter 20

  • Peso: 25.8 GiB

Sinopsis

Se trata de una secuela de la exitosa comedia escrita y dirigida por el cómico Seth MacFarlane. Recién casados Ted y Tami-Lynn deciden tener un bebé. John se ofrece en donar su esperma para que su mejor amigo pueda cumplir su sueño de tener un hijo, pero inesperadamente reciben una carta legal que dice que el estado no le permite ser padre ya que no está demostrado que sea una persona. Todos juntos tendrán que unir fuerzas para luchar por sus derechos en un tribunal de justicia.

Ficha técnica

Video trailer de la película

Enlaces de descarga

Rip de Bluray

Descargar Ted 2 (2015) [UNRATED] REMUX 1080p Latino – CMHDD


Aportes de DPeliculasHDmega la pass es:dpeliculashdmega.org Aportes de CinemaniaHD la pass es:cinemaniahdd.com
Guardado en : Comedia

Películas relacionadas

  • La familia Monster (2022) HD 1080p Latino

    La familia Monster (2022) HD 1080p Latino

    2022
    La familia Monster (2022) HD 1080p Latino

    1h 49m 2022

    Descargar La familia Monster (2022) HD 1080p Latino. Reboot de "The Munsters", que sigue las desventuras...

    Director: Rob Zombie

    Género: Comedia

    Actores: Tomas Boykin

  • La familia Monster (2022) REMUX 1080p Latino

    La familia Monster (2022) REMUX 1080p Latino

    2022
    La familia Monster (2022) REMUX 1080p Latino

    1h 49m 2022

    Descargar La familia Monster (2022) REMUX 1080p Latino. Reboot de "The Munsters", que sigue las desventuras...

    Director: Rob Zombie

    Género: Comedia

    Actores: Tomas Boykin

  • Cobra Kai (2022) Temporada 5 NF WEB-DL 1080p Latino

    Cobra Kai (2022) Temporada 5 NF WEB-DL 1080p Latino

    2018
    Cobra Kai (2022) Temporada 5 NF WEB-DL 1080p Latino

    0h 30m 2018

    Descargar Cobra Kai (2022) Temporada 5 NF WEB-DL 1080p Latino. Cobra Kai tiene lugar treinta y cuatro...

    Director: Josh Heald

    Género: Action & Adventure

    Actores: Xolo Mariduena

  • Cobra Kai (2019) Temporada 02 Full HD 1080p Latino

    Cobra Kai (2019) Temporada 02 Full HD 1080p Latino

    2018
    Cobra Kai (2019) Temporada 02 Full HD 1080p Latino

    0h 30m 2018

    Descargar Cobra Kai (2019) Temporada 02 Full HD 1080p Latino. La segunda temporada continúa con la lucha...

    Director: Josh Heald

    Género: Action & Adventure

    Actores: Xolo Mariduena

descargar Ted 2 (2015) [UNRATED] REMUX 1080p Latino – CMHDD Full 1080p 1080p gratis, Ted 2 (2015) [UNRATED] REMUX 1080p Latino – CMHDD Full 1080p mega 1 link, Ted 2 (2015) [UNRATED] REMUX 1080p Latino – CMHDD Full 1080p pelicula completa, descargar Ted 2 (2015) [UNRATED] REMUX 1080p Latino – CMHDD Full 1080p gratis en mega.

Ted 2 (2015) [UNRATED] REMUX 1080p Latino – CMHDD pelicula full hd, Ted 2 (2015) [UNRATED] REMUX 1080p Latino – CMHDD mega latino, Ted 2 (2015) [UNRATED] REMUX 1080p Latino – CMHDD 4k latino, Ted 2 (2015) [UNRATED] REMUX 1080p Latino – CMHDD pelicula completa, Ted 2 (2015) [UNRATED] REMUX 1080p Latino – CMHDD descargar gratis, descargar Ted 2 (2015) [UNRATED] REMUX 1080p Latino – CMHDD pelicula latino, Ted 2 (2015) [UNRATED] REMUX 1080p Latino – CMHDD 1 link mega, Ted 2 (2015) [UNRATED] REMUX 1080p Latino – CMHDD 1 link google drive, Ted 2 (2015) [UNRATED] REMUX 1080p Latino – CMHDD hd 1080p latino.
Comentarios 0