×

¿Problemas para descargar con Mozilla, EDGE? Deshabilita la opción "Abrir vinculos en una pestaña nueva" tal como lo muestra ésta imagen.

Ted 2 (2015) [UNRATED] Full HD 1080p Latino – CMHDD

417 vistas

Información de Ted 2 (2015) [UNRATED] Full HD 1080p Latino – CMHDD

Datos de la película

  • Calidad: Full 1080p
  • Audio: Español Latino AC3 5.1 DVD - Ingles DTS 5.1 BLURAY
  • Subtitulos: Español Latino SRT- FORZADOS SRT
  • Resolución: 1920x1080p
  • Formato: MKV
  • Codec: H.264
  • Encoder: Dracarys
  • Mediainfo: Clic para Mostrar Datos Ver
  • Format                      : Matroska
    Format version              : Version 4
    File size                   : 5.08 GiB
    Duration                    : 2 h 5 min
    Overall bit rate            : 5 783 kb/s
    Movie name                  : Ted 2 (2015) [UNRATED] Full HD 1080p Latino - CMHDD
    Encoded date                : UTC 2020-11-23 04:45:02
    Writing application         : mkvmerge v51.0.0 ('I Wish') 64-bit
    Writing library             : libebml v1.4.0 + libmatroska v1.6.2

    Video
    ID                          : 1
    Format                      : AVC
    Format/Info                 : Advanced Video Codec
    Format profile              : High@L4.1
    Format settings             : CABAC / 4 Ref Frames
    Format settings, CABAC      : Yes
    Format settings, Reference  : 4 frames
    Codec ID                    : V_MPEG4/ISO/AVC
    Duration                    : 2 h 5 min
    Bit rate                    : 3 631 kb/s
    Width                       : 1 920 pixels
    Height                      : 1 080 pixels
    Display aspect ratio        : 16:9
    Frame rate mode             : Constant
    Frame rate                  : 23.976 (24000/1001) FPS
    Color space                 : YUV
    Chroma subsampling          : 4:2:0
    Bit depth                   : 8 bits
    Scan type                   : Progressive
    Bits/(Pixel*Frame)          : 0.073
    Stream size                 : 3.19 GiB (63%)
    Writing library             : x264 core 157 r2935 545de2f
    Encoding settings           : cabac=1 / ref=4 / deblock=1:0:0 / analyse=0x3:0x133 / me=tesa / subme=11 / psy=1 / psy_rd=1.00:0.00 / mixed_ref=1 / me_range=24 / chroma_me=1 / trellis=2 / 8x8dct=1 / cqm=0 / deadzone=21,11 / fast_pskip=0 / chroma_qp_offset=-2 / threads=24 / lookahead_threads=6 / sliced_threads=0 / nr=0 / decimate=1 / interlaced=0 / bluray_compat=0 / constrained_intra=0 / bframes=16 / b_pyramid=2 / b_adapt=2 / b_bias=0 / direct=3 / weightb=1 / open_gop=0 / weightp=2 / keyint=240 / keyint_min=24 / scenecut=40 / intra_refresh=0 / rc_lookahead=60 / rc=crf / mbtree=1 / crf=20.0 / qcomp=0.60 / qpmin=0 / qpmax=69 / qpstep=4 / vbv_maxrate=62500 / vbv_bufsize=78125 / crf_max=0.0 / nal_hrd=none / filler=0 / ip_ratio=1.40 / aq=1:1.00
    Default                     : Yes
    Forced                      : No
    Color range                 : Limited
    Color primaries             : BT.709
    Transfer characteristics    : BT.709
    Matrix coefficients         : BT.709

    Audio #1
    ID                          : 2
    Format                      : AC-3
    Format/Info                 : Audio Coding 3
    Commercial name             : Dolby Digital
    Codec ID                    : A_AC3
    Duration                    : 2 h 5 min
    Bit rate mode               : Constant
    Bit rate                    : 640 kb/s
    Channel(s)                  : 6 channels
    Channel layout              : L R C LFE Ls Rs
    Sampling rate               : 48.0 kHz
    Frame rate                  : 31.250 FPS (1536 SPF)
    Compression mode            : Lossy
    Stream size                 : 576 MiB (11%)
    Language                    : Spanish
    Service kind                : Complete Main
    Default                     : Yes
    Forced                      : No

    Audio #2
    ID                          : 3
    Format                      : DTS
    Format/Info                 : Digital Theater Systems
    Codec ID                    : A_DTS
    Duration                    : 2 h 5 min
    Bit rate mode               : Constant
    Bit rate                    : 1 509 kb/s
    Channel(s)                  : 6 channels
    Channel layout              : C L R Ls Rs LFE
    Sampling rate               : 48.0 kHz
    Frame rate                  : 93.750 FPS (512 SPF)
    Bit depth                   : 24 bits
    Compression mode            : Lossy
    Stream size                 : 1.33 GiB (26%)
    Language                    : English
    Default                     : No
    Forced                      : No

    Text #1
    ID                          : 4
    Format                      : UTF-8
    Codec ID                    : S_TEXT/UTF8
    Codec ID/Info               : UTF-8 Plain Text
    Duration                    : 1 h 39 min
    Bit rate                    : 1 b/s
    Count of elements           : 23
    Stream size                 : 1.03 KiB (0%)
    Language                    : Spanish
    Default                     : Yes
    Forced                      : Yes

    Text #2
    ID                          : 5
    Format                      : UTF-8
    Codec ID                    : S_TEXT/UTF8
    Codec ID/Info               : UTF-8 Plain Text
    Duration                    : 2 h 4 min
    Bit rate                    : 97 b/s
    Count of elements           : 2300
    Stream size                 : 89.3 KiB (0%)
    Language                    : Spanish
    Default                     : No
    Forced                      : No

    Menu
    00:00:00.000                : :Chapter 1
    00:09:08.048                : :Chapter 2
    00:17:30.508                : :Chapter 3
    00:22:03.906                : :Chapter 4
    00:30:27.409                : :Chapter 5
    00:39:22.402                : :Chapter 6
    00:48:15.226                : :Chapter 7
    00:53:39.550                : :Chapter 8
    01:00:09.356                : :Chapter 9
    01:04:54.057                : :Chapter 10
    01:10:15.044                : :Chapter 11
    01:16:16.238                : :Chapter 12
    01:20:26.780                : :Chapter 13
    01:26:08.830                : :Chapter 14
    01:32:42.682                : :Chapter 15
    01:39:39.474                : :Chapter 16
    01:45:14.225                : :Chapter 17
    01:49:59.259                : :Chapter 18
    01:54:50.217                : :Chapter 19
    01:58:43.491                : :Chapter 20

  • Peso: 5.08 GiB

Sinopsis

Se trata de una secuela de la exitosa comedia escrita y dirigida por el cómico Seth MacFarlane. Recién casados Ted y Tami-Lynn deciden tener un bebé. John se ofrece en donar su esperma para que su mejor amigo pueda cumplir su sueño de tener un hijo, pero inesperadamente reciben una carta legal que dice que el estado no le permite ser padre ya que no está demostrado que sea una persona. Todos juntos tendrán que unir fuerzas para luchar por sus derechos en un tribunal de justicia.

Ficha técnica

Video trailer de la película

Enlaces de descarga

Rip de Bluray

Descargar Ted 2 (2015) [UNRATED] Full HD 1080p Latino – CMHDD




Aportes de DPeliculasHDmega la pass es:dpeliculashdmega.org Aportes de CinemaniaHD la pass es:cinemaniahdd.com
Guardado en : Comedia

Películas relacionadas

  • Shotgun Wedding (2022) AMZN WEB-DL 1080p Latino

    Shotgun Wedding (2022) AMZN WEB-DL 1080p Latino

    2022
    Shotgun Wedding (2022) AMZN WEB-DL 1080p Latino

    1h 41m 2022

    Darcy y Tom reúnen a sus familias para la boda de destino definitiva, pero cuando toman como rehenes...

    Director: Jason Moore

    Género: Acción

    Actores: Steve Coulter

  • M3GAN (2023) AMZN WEB-DL 4K UHD HDR Latino

    M3GAN (2023) AMZN WEB-DL 4K UHD HDR Latino

    2022
    M3GAN (2023) AMZN WEB-DL 4K UHD HDR Latino

    1h 42m 2022

    Descargar M3GAN (2023) AMZN WEB-DL 4K UHD HDR Latino. Cuando Gemma se convierte en la cuidadora de su...

    Director: Stephen W. Moore

    Género: 4K HDR

    Actores: Violet McGraw

  • M3GAN (2022) MA WEB-DL 1080p Latino

    M3GAN (2022) MA WEB-DL 1080p Latino

    2022
    M3GAN (2022) MA WEB-DL 1080p Latino

    1h 42m 2022

    Descargar M3GAN (2022) MA WEB-DL 1080p Latino. Cuando Gemma se convierte en la cuidadora de su sobrina...

    Director: Stephen W. Moore

    Género: Ciencia ficción

    Actores: Violet McGraw

  • Noche sin paz (2022) PLACEBO Full HD 1080p Latino

    Noche sin paz (2022) PLACEBO Full HD 1080p Latino

    2022
    Noche sin paz (2022) PLACEBO Full HD 1080p Latino

    1h 41m 2022

    Descargar Noche sin paz (2022) PLACEBO Full HD 1080p Latino. Cuando un equipo de mercenarios irrumpe...

    Director: Tyshana Hobson

    Género: Acción

    Actores: Yoon Cha-Lee

  • Noche sin paz (2022) HD 1080p Latino

    Noche sin paz (2022) HD 1080p Latino

    2022
    Noche sin paz (2022) HD 1080p Latino

    1h 41m 2022

    Descargar Noche sin paz (2022) HD 1080p Latino. Cuando un equipo de mercenarios irrumpe en Nochebuena...

    Director: Tyshana Hobson

    Género: Acción

    Actores: Yoon Cha-Lee

descargar Ted 2 (2015) [UNRATED] Full HD 1080p Latino – CMHDD Full 1080p 1080p gratis, Ted 2 (2015) [UNRATED] Full HD 1080p Latino – CMHDD Full 1080p mega 1 link, Ted 2 (2015) [UNRATED] Full HD 1080p Latino – CMHDD Full 1080p pelicula completa, descargar Ted 2 (2015) [UNRATED] Full HD 1080p Latino – CMHDD Full 1080p gratis en mega.

Ted 2 (2015) [UNRATED] Full HD 1080p Latino – CMHDD pelicula full hd, Ted 2 (2015) [UNRATED] Full HD 1080p Latino – CMHDD mega latino, Ted 2 (2015) [UNRATED] Full HD 1080p Latino – CMHDD 4k latino, Ted 2 (2015) [UNRATED] Full HD 1080p Latino – CMHDD pelicula completa, Ted 2 (2015) [UNRATED] Full HD 1080p Latino – CMHDD descargar gratis, descargar Ted 2 (2015) [UNRATED] Full HD 1080p Latino – CMHDD pelicula latino, Ted 2 (2015) [UNRATED] Full HD 1080p Latino – CMHDD 1 link mega, Ted 2 (2015) [UNRATED] Full HD 1080p Latino – CMHDD 1 link google drive, Ted 2 (2015) [UNRATED] Full HD 1080p Latino – CMHDD hd 1080p latino.
Comentarios 0