¡Te atrapé! (2018) Full 1080p Latino

1.203 vistas
1 estrella2 estrellas3 estrellas4 estrellas5 estrellas (3 votos, promedio: 5,00 de 5)
Cargando…

Información de ¡Te atrapé! (2018) Full 1080p Latino

Datos de la película

  • Calidad: Full 1080p
  • Audio: Español Latino AC3 5.1 BLURAY - Ingles DTS 5.1 BLURAY
  • Subtitulos: Español Latino PGS - Ingles PGS
  • Resolución: 1920x1080p
  • Formato: MKV
  • Codec: H.264
  • Encoder: Dracarys
  • Mediainfo: Clic para Mostrar Datos Ver
  • Format                                   : Matroska
    Format version                           : Version 4 / Version 2
    File size                                : 3.73 GiB
    Duration                                 : 1 h 40 min
    Overall bit rate                         : 5 308 kb/s
    Movie name                               : CinemaniaHDD.net
    Encoded date                             : UTC 2018-08-29 04:32:05 / UTC 2018-08-21T06:19:23Z
    Writing application                      : mkvmerge v15.0.0 ('Duel with the Devil') 64-bit
    Writing library                          : libebml v1.3.5 + libmatroska v1.4.5 / Lavf57.7.2

    Video
    ID                                       : 1
    Format                                   : AVC
    Format/Info                              : Advanced Video Codec
    Format profile                           : High@L4.1
    Format settings                          : CABAC / 4 Ref Frames
    Format settings, CABAC                   : Yes
    Format settings, RefFrames               : 4 frames
    Codec ID                                 : V_MPEG4/ISO/AVC
    Duration                                 : 1 h 40 min
    Bit rate                                 : 3 054 kb/s
    Width                                    : 1 920 pixels
    Height                                   : 1 080 pixels
    Display aspect ratio                     : 16:9
    Frame rate mode                          : Constant
    Frame rate                               : 23.976 (24000/1001) FPS
    Color space                              : YUV
    Chroma subsampling                       : 4:2:0
    Bit depth                                : 8 bits
    Scan type                                : Progressive
    Bits/(Pixel*Frame)                       : 0.061
    Stream size                              : 2.15 GiB (58%)
    Title                                    : ¡Te atrapé! (2018) Full 1080p Latino
    Writing library                          : x264 core 148 r2708 86b7198
    Encoding settings                        : cabac=1 / ref=4 / deblock=1:0:0 / analyse=0x3:0x133 / me=esa / subme=10 / psy=1 / psy_rd=1.00:0.00 / mixed_ref=1 / me_range=24 / chroma_me=1 / trellis=2 / 8x8dct=1 / cqm=0 / deadzone=21,11 / fast_pskip=1 / chroma_qp_offset=-2 / threads=34 / lookahead_threads=5 / sliced_threads=0 / nr=0 / decimate=1 / interlaced=0 / bluray_compat=0 / constrained_intra=0 / bframes=8 / b_pyramid=2 / b_adapt=2 / b_bias=0 / direct=3 / weightb=1 / open_gop=0 / weightp=2 / keyint=240 / keyint_min=24 / scenecut=40 / intra_refresh=0 / rc_lookahead=60 / rc=crf / mbtree=1 / crf=20.0 / qcomp=0.60 / qpmin=0 / qpmax=69 / qpstep=4 / vbv_maxrate=62500 / vbv_bufsize=78125 / crf_max=0.0 / nal_hrd=none / filler=0 / ip_ratio=1.40 / aq=1:1.00
    Language                                 : English
    Default                                  : Yes
    Forced                                   : No
    Color range                              : Limited
    Color primaries                          : BT.709
    Transfer characteristics                 : BT.709
    Matrix coefficients                      : BT.709
    Statistics Tags Issue                    : mkvmerge v15.0.0 ('Duel with the Devil') 64-bit 2018-08-29 04:32:05 / mkvmerge v15.0.0 ('Duel with the Devil') 64-bit 2018-08-29 04:32:05 / UTC 2018-08-21T06:19:23Z
    FromStats_BitRate                        : 3123248
    FromStats_Duration                       : 01:40:33.903000000
    FromStats_FrameCount                     : 144669
    FromStats_StreamSize                     : 2355672157

    Audio #1
    ID                                       : 2
    Format                                   : AC-3
    Format/Info                              : Audio Coding 3
    Format settings, Endianness              : Big
    Codec ID                                 : A_AC3
    Duration                                 : 1 h 40 min
    Bit rate mode                            : Constant
    Bit rate                                 : 640 kb/s
    Channel(s)                               : 6 channels
    Channel positions                        : Front: L C R, Side: L R, LFE
    Sampling rate                            : 48.0 kHz
    Frame rate                               : 31.250 FPS (1536 SPF)
    Bit depth                                : 16 bits
    Compression mode                         : Lossy
    Stream size                              : 460 MiB (12%)
    Language                                 : Spanish
    Service kind                             : Complete Main
    Default                                  : Yes
    Forced                                   : No
    Statistics Tags Issue                    : mkvmerge v15.0.0 ('Duel with the Devil') 64-bit 2018-08-29 04:32:05 / mkvmerge v15.0.0 ('Duel with the Devil') 64-bit 2018-08-29 04:32:05 / UTC 2018-08-21T06:19:23Z
    FromStats_BitRate                        : 640000
    FromStats_Duration                       : 01:40:33.920000000
    FromStats_FrameCount                     : 188560
    FromStats_StreamSize                     : 482713600

    Audio #2
    ID                                       : 3
    Format                                   : DTS
    Format/Info                              : Digital Theater Systems
    Mode                                     : 16
    Format settings, Endianness              : Big
    Codec ID                                 : A_DTS
    Duration                                 : 1 h 40 min
    Bit rate mode                            : Constant
    Bit rate                                 : 1 509 kb/s
    Channel(s)                               : 6 channels
    Channel positions                        : Front: L C R, Side: L R, LFE
    Sampling rate                            : 48.0 kHz
    Frame rate                               : 93.750 FPS (512 SPF)
    Bit depth                                : 24 bits
    Compression mode                         : Lossy
    Stream size                              : 1.06 GiB (28%)
    Language                                 : English
    Default                                  : No
    Forced                                   : No
    Statistics Tags Issue                    : mkvmerge v15.0.0 ('Duel with the Devil') 64-bit 2018-08-29 04:32:05 / mkvmerge v15.0.0 ('Duel with the Devil') 64-bit 2018-08-29 04:32:05 / UTC 2018-08-21T06:19:23Z
    FromStats_BitRate                        : 1508999
    FromStats_Duration                       : 01:40:33.899000000
    FromStats_FrameCount                     : 565678
    FromStats_StreamSize                     : 1138144136

    Text #1
    ID                                       : 4
    Format                                   : PGS
    Muxing mode                              : zlib
    Codec ID                                 : S_HDMV/PGS
    Codec ID/Info                            : Picture based subtitle format used on BDs/HD-DVDs
    Language                                 : English
    Default                                  : No
    Forced                                   : No
    Statistics Tags Issue                    : mkvmerge v15.0.0 ('Duel with the Devil') 64-bit 2018-08-29 04:32:05 / mkvmerge v15.0.0 ('Duel with the Devil') 64-bit 2018-08-29 04:32:05 / UTC 2018-08-21T06:19:23Z
    FromStats_BitRate                        : 60663
    FromStats_Duration                       : 01:40:19.972000000
    FromStats_FrameCount                     : 4286
    FromStats_StreamSize                     : 45649443

    Text #2
    ID                                       : 5
    Format                                   : PGS
    Muxing mode                              : zlib
    Codec ID                                 : S_HDMV/PGS
    Codec ID/Info                            : Picture based subtitle format used on BDs/HD-DVDs
    Language                                 : Spanish
    Default                                  : No
    Forced                                   : No
    Statistics Tags Issue                    : mkvmerge v15.0.0 ('Duel with the Devil') 64-bit 2018-08-29 04:32:05 / mkvmerge v15.0.0 ('Duel with the Devil') 64-bit 2018-08-29 04:32:05 / UTC 2018-08-21T06:19:23Z
    FromStats_BitRate                        : 48416
    FromStats_Duration                       : 01:40:02.163000000
    FromStats_FrameCount                     : 3820
    FromStats_StreamSize                     : 36325299

    Text #3
    ID                                       : 6
    Format                                   : PGS
    Muxing mode                              : zlib
    Codec ID                                 : S_HDMV/PGS
    Codec ID/Info                            : Picture based subtitle format used on BDs/HD-DVDs
    Title                                    : Forzados
    Language                                 : Spanish
    Default                                  : Yes
    Forced                                   : Yes
    Statistics Tags Issue                    : mkvmerge v15.0.0 ('Duel with the Devil') 64-bit 2018-08-29 04:32:05 / mkvmerge v15.0.0 ('Duel with the Devil') 64-bit 2018-08-29 04:32:05 / UTC 2018-08-21T06:19:23Z
    FromStats_BitRate                        : 167
    FromStats_Duration                       : 01:22:39.955000000
    FromStats_FrameCount                     : 6
    FromStats_StreamSize                     : 104011

    Menu
    00:00:00.000                             : :Chapter 1
    00:09:24.230                             : :Chapter 2
    00:17:04.482                             : :Chapter 3
    00:28:18.864                             : :Chapter 4
    00:36:56.214                             : :Chapter 5
    00:46:16.399                             : :Chapter 6
    00:56:28.260                             : :Chapter 7
    01:06:09.466                             : :Chapter 8
    01:18:02.720                             : :Chapter 9
    01:26:30.102                             : :Chapter 10
    01:35:55.959                             : :Chapter 11

  • Peso: 3.73 GiB

Sinopsis

Un mes al año, cinco amigos de lo más competitivos ponen en marcha el juego del tag, al que han estado jugando desde el instituto, sin límite alguno, arriesgando en ellos sus relaciones y trabajos para lograr derrotar al resto. Este año, el juego coincide con la boda del único jugador invicto, que finalmente puede ser presa fácil. Pero él sabe que vendrán… y está preparado.

Ficha técnica

Video trailer de la película

Enlaces de descarga

Rip de Bluray

Descargar ¡Te atrapé! (2018) Full 1080p Latino




Aportes de DPeliculasHDmega la pass es:dpeliculashdmega.org Aportes de CinemaniaHD la pass es:cinemaniahdd.com

Películas relacionadas

  • Godzilla (2014) 1080p Latino

    2014
    Godzilla (2014) 1080p Latino

    0.0 2h 3m 2014

    Descargar Godzilla (2014) 1080p Latino, Mega, Google Drive, Torrent. Gareth Edwards dirige este "reboot",...

    Director: Jessica Clothier

    Género: Acción

    Actores: Yuki Morita

  • Godzilla (2014) Full 1080p Latino

    2014
    Godzilla (2014) Full 1080p Latino

    4.2 2h 3m 2014

    Descargar Godzilla (2014) Full 1080p Latino, Mega, Google Drive, Torrent. Gareth Edwards dirige este...

    Director: Jessica Clothier

    Género: Acción

    Actores: Yuki Morita

  • Un pequeño favor (2018) Full 1080p Latino

    2018
    Un pequeño favor (2018) Full 1080p Latino

    5.0 1h 57m 2018

    Descargar Un pequeño favor (2018) Full 1080p Latino, Mega, Google Drive, Torrent. Stephanie es una joven...

    Director: Paul Feig

    Género: Crimen

    Actores: Zach Smadu

Comentarios 0