×

¿Problemas para descargar con Mozilla, EDGE? Deshabilita la opción "Abrir vinculos en una pestaña nueva" tal como lo muestra ésta imagen.

Taylor Swift-The Eras Tour (2023) [EXTENDED] AMZN WEB-DL 4K SDR – CMHDD

190 vistas

Información de Taylor Swift-The Eras Tour (2023) [EXTENDED] AMZN WEB-DL 4K SDR – CMHDD

Datos de la película

  • Calidad: WEBDL
  • Audio: Se especifica abajo de la Sinopsis
  • Subtitulos: Español Latino SRT
  • Resolución: 3840x1600p
  • Formato: MKV
  • Codec: H.264
  • Encoder: Dracarys
  • Mediainfo: Clic para Mostrar Datos Ver
  • Format                      : Matroska
    Format version              : Version 4
    File size                   : 27.6 GiB
    Duration                    : 3 h 1 min
    Overall bit rate            : 21.8 Mb/s
    Movie name                  : Taylor Swift-The Eras Tour (2023) [EXTENDED] AMZN WEB-DL 4K SDR - CMHDD
    Encoded date                : UTC 2023-12-15 01:18:43
    Writing application         : mkvmerge v47.0.0 ('Black Flag') 64-bit
    Writing library             : libebml v1.3.10 + libmatroska v1.5.2

    Video
    ID                          : 1
    Format                      : HEVC
    Format/Info                 : High Efficiency Video Coding
    Format profile              : Main 10@L5@High
    Codec ID                    : V_MPEGH/ISO/HEVC
    Duration                    : 3 h 0 min
    Bit rate                    : 20.4 Mb/s
    Width                       : 3 832 pixels
    Height                      : 1 600 pixels
    Display aspect ratio        : 2.40:1
    Frame rate mode             : Constant
    Frame rate                  : 23.976 FPS
    Color space                 : YUV
    Chroma subsampling          : 4:2:0
    Bit depth                   : 10 bits
    Bits/(Pixel*Frame)          : 0.139
    Stream size                 : 25.8 GiB (94%)
    Language                    : English
    Default                     : Yes
    Forced                      : No
    Color range                 : Limited
    Color primaries             : BT.709
    Transfer characteristics    : BT.709
    Matrix coefficients         : BT.709

    Audio #1
    ID                          : 2
    Format                      : AC-3
    Format/Info                 : Audio Coding 3
    Commercial name             : Dolby Digital
    Codec ID                    : A_AC3
    Duration                    : 3 h 1 min
    Bit rate mode               : Constant
    Bit rate                    : 640 kb/s
    Channel(s)                  : 6 channels
    Channel layout              : L R C LFE Ls Rs
    Sampling rate               : 48.0 kHz
    Frame rate                  : 31.250 FPS (1536 SPF)
    Compression mode            : Lossy
    Stream size                 : 829 MiB (3%)
    Language                    : English
    Service kind                : Complete Main
    Default                     : Yes
    Forced                      : No

    Audio #2
    ID                          : 3
    Format                      : E-AC-3 JOC
    Format/Info                 : Enhanced AC-3 with Joint Object Coding
    Commercial name             : Dolby Digital Plus with Dolby Atmos
    Codec ID                    : A_EAC3
    Duration                    : 3 h 1 min
    Bit rate mode               : Constant
    Bit rate                    : 768 kb/s
    Channel(s)                  : 6 channels
    Channel layout              : L R C LFE Ls Rs
    Sampling rate               : 48.0 kHz
    Frame rate                  : 31.250 FPS (1536 SPF)
    Compression mode            : Lossy
    Stream size                 : 995 MiB (4%)
    Language                    : English
    Service kind                : Complete Main
    Default                     : No
    Forced                      : No
    Complexity index            : 16
    Number of dynamic objects   : 15
    Bed channel count           : 1 channel
    Bed channel configuration   : LFE

    Text
    ID                          : 4
    Format                      : UTF-8
    Codec ID                    : S_TEXT/UTF8
    Codec ID/Info               : UTF-8 Plain Text
    Duration                    : 3 h 0 min
    Bit rate                    : 4 b/s
    Frame rate                  : 0.012 FPS
    Count of elements           : 132
    Stream size                 : 6.55 KiB (0%)
    Language                    : Spanish
    Default                     : Yes
    Forced                      : No

    Menu
    00:00:00.000                : en:Disclaimer
    00:00:10.000                : en:Miss Americana & The Heartbreak Prince
    00:02:54.000                : en:Cruel Summer
    00:06:37.000                : en:Scene 4
    00:09:26.000                : en:The Man
    00:12:45.000                : en:You Need to Calm Down
    00:14:30.000                : en:Lover
    00:20:04.000                : en:Fearless
    00:23:11.000                : en:You Belong With Me
    00:27:12.000                : en:Love Story
    00:31:10.000                : en:willow
    00:36:07.000                : en:marjorie
    00:39:15.000                : en:champagne problems
    00:45:45.000                : en:tolerate it
    00:51:07.000                : en:...ready for it?
    00:55:19.000                : en:delicate
    00:59:13.000                : en:don't blame me
    01:02:38.000                : en:look what you made me do
    01:06:24.000                : en:Enchanted
    01:10:54.000                : en:22
    01:14:54.000                : en:We Are Never Ever Getting Back Together
    01:18:13.000                : en:I Knew You Were Trouble
    01:20:40.000                : en:All Too Well (10 Minute Version)
    01:31:11.000                : en:the 1
    01:34:58.000                : en:betty
    01:41:42.000                : en:the last great american dynasty
    01:45:38.000                : en:august
    01:49:08.000                : en:illicit affairs
    01:50:55.000                : en:my tear ricochet
    01:54:59.000                : en:Style
    01:57:40.000                : en:Blank Space
    02:01:47.000                : en:Shake It Off
    02:05:33.000                : en:Bad Blood
    02:07:55.000                : en:Our Song
    02:12:58.000                : en:You're On Your Own, Kid
    02:16:37.000                : en:Scene 36
    02:17:24.000                : en:Lavender Haze
    02:21:39.000                : en:Scene 38
    02:25:04.000                : en:Midnight Rain
    02:27:54.000                : en:Vigilante Shit
    02:30:43.000                : en:Bejeweled
    02:34:04.000                : en:Mastermind
    02:37:26.000                : en:Karma
    02:43:23.000                : en:Extra Performances - The Archer
    02:47:18.000                : en:Extra Performances - Wildest Dream
    02:49:44.000                : en:Extra Performances - Long Live
    02:55:29.000                : en:End Credits

     

  • Peso: 27.6 GiB

Sinopsis

El fenómeno cultural de la cantante Taylor Swift continúa en la pantalla grande con este documental que se sumerge en los conciertos de la histórica gira de la artista.

 

Ingles: E-AC3 5.1

Ficha técnica

Video trailer de la película

Enlaces de descarga

Rip de Bluray

Descargar Taylor Swift-The Eras Tour (2023) [EXTENDED] AMZN WEB-DL 4K SDR – CMHDD




Aportes de DPeliculasHDmega la pass es:dpeliculashdmega.org Aportes de CinemaniaHD la pass es:cinemaniahdd.com Aportes recientes:cinemaniahdd.net
Guardado en : Música

Películas relacionadas

  • Find Me Falling (2024) NF WEB-DL 1080p Latino

    Find Me Falling (2024) NF WEB-DL 1080p Latino

    2024
    Find Me Falling (2024) NF WEB-DL 1080p Latino

    0h 0m 2024

    Descargar Find Me Falling (2024) NF WEB-DL 1080p Latino. Tras el fracaso del disco con el que pensaba...

    Director: Stelana Kliris

    Género: Comedia

    Actores: Yiola Klitou

  • Un Heroe Anonimo (2024) 1080p Latino-CMHDD

    Un Heroe Anonimo (2024) 1080p Latino-CMHDD

    2024
    Un Heroe Anonimo (2024) 1080p Latino-CMHDD

    1h 53m 2024

    Descargar Un Heroe Anonimo (2024) 1080p Latino-CMHDD. Basada en una extraordinaria historia real, la...

    Director: Richard Ramsey

    Género: Drama

    Actores: Vin Morreale Jr

  • Un Heroe Anonimo (2024) Full HD 1080p Latino-CMHDD

    Un Heroe Anonimo (2024) Full HD 1080p Latino-CMHDD

    2024
    Un Heroe Anonimo (2024) Full HD 1080p Latino-CMHDD

    1h 53m 2024

    Descargar Un Heroe Anonimo (2024) Full HD 1080p Latino-CMHDD Basada en una extraordinaria historia real,...

    Director: Richard Ramsey

    Género: Drama

    Actores: Vin Morreale Jr

  • Un Heroe Anonimo (2024) REMUX 1080p Latino-CMHDD

    Un Heroe Anonimo (2024) REMUX 1080p Latino-CMHDD

    2024
    Un Heroe Anonimo (2024) REMUX 1080p Latino-CMHDD

    1h 53m 2024

    Descargar Un Heroe Anonimo (2024) REMUX 1080p Latino-CMHDD. Basada en una extraordinaria historia real,...

    Director: Richard Ramsey

    Género: Drama

    Actores: Vin Morreale Jr

  • Yesterday (2019) REMUX 4K HDR Latino – CMHDD

    Yesterday (2019) REMUX 4K HDR Latino – CMHDD

    2019
    Yesterday (2019) REMUX 4K HDR Latino – CMHDD

    2h 5m 2019

    Ayer todo el mundo conocía a Los Beatles. Hoy Jack es el único que recuerda sus canciones. Este músico...

    Director: Zoe Morgan

    Género: Comedia

    Actores: Vincent Franklin

descargar Taylor Swift-The Eras Tour (2023) [EXTENDED] AMZN WEB-DL 4K SDR – CMHDD WEBDL 1080p gratis, Taylor Swift-The Eras Tour (2023) [EXTENDED] AMZN WEB-DL 4K SDR – CMHDD WEBDL mega 1 link, Taylor Swift-The Eras Tour (2023) [EXTENDED] AMZN WEB-DL 4K SDR – CMHDD WEBDL pelicula completa, descargar Taylor Swift-The Eras Tour (2023) [EXTENDED] AMZN WEB-DL 4K SDR – CMHDD WEBDL gratis en mega.

Taylor Swift-The Eras Tour (2023) [EXTENDED] AMZN WEB-DL 4K SDR – CMHDD pelicula full hd, Taylor Swift-The Eras Tour (2023) [EXTENDED] AMZN WEB-DL 4K SDR – CMHDD mega latino, Taylor Swift-The Eras Tour (2023) [EXTENDED] AMZN WEB-DL 4K SDR – CMHDD 4k latino, Taylor Swift-The Eras Tour (2023) [EXTENDED] AMZN WEB-DL 4K SDR – CMHDD pelicula completa, Taylor Swift-The Eras Tour (2023) [EXTENDED] AMZN WEB-DL 4K SDR – CMHDD descargar gratis, descargar Taylor Swift-The Eras Tour (2023) [EXTENDED] AMZN WEB-DL 4K SDR – CMHDD pelicula latino, Taylor Swift-The Eras Tour (2023) [EXTENDED] AMZN WEB-DL 4K SDR – CMHDD 1 link mega, Taylor Swift-The Eras Tour (2023) [EXTENDED] AMZN WEB-DL 4K SDR – CMHDD 1 link google drive, Taylor Swift-The Eras Tour (2023) [EXTENDED] AMZN WEB-DL 4K SDR – CMHDD hd 1080p latino.
Comentarios 0