Taxi Driver (1976) Full 1080p Latino

1.761 vistas
1 estrella2 estrellas3 estrellas4 estrellas5 estrellas (3 votos, promedio: 5,00 de 5)
Cargando…

Información de Taxi Driver (1976) Full 1080p Latino

Datos de la película

  • Calidad: Full 1080p
  • Audio: Español Latino AC3 5.1 BLURAY - Ingles DTS 5.1 BLURAY
  • Subtitulos: Español Latino PGS - Ingles PGS
  • Resolución: 1920X1080
  • Formato: MKV
  • Codec: H.264
  • Encoder: Dpelis
  • Mediainfo: Clic para Mostrar Datos Ver
  • Format                                   : Matroska
    Format version                           : Version 4 / Version 2
    File size                                : 15.2 GiB
    Duration                                 : 1 h 53 min
    Overall bit rate                         : 19.1 Mb/s
    Movie name                               : dpeliculashdmega.org
    Encoded date                             : UTC 2017-11-26 05:54:48 / UTC 2017-11-25T06:58:13Z
    Writing application                      : mkvmerge v15.0.0 ('Duel with the Devil') 64-bit
    Writing library                          : libebml v1.3.5 + libmatroska v1.4.5 / Lavf57.7.2

    Video
    ID                                       : 1
    Format                                   : AVC
    Format/Info                              : Advanced Video Codec
    Format profile                           : High@L4.1
    Format settings                          : CABAC / 4 Ref Frames
    Format settings, CABAC                   : Yes
    Format settings, RefFrames               : 4 frames
    Codec ID                                 : V_MPEG4/ISO/AVC
    Duration                                 : 1 h 53 min
    Bit rate                                 : 16.6 Mb/s
    Width                                    : 1 920 pixels
    Height                                   : 1 080 pixels
    Display aspect ratio                     : 16:9
    Frame rate mode                          : Constant
    Frame rate                               : 23.976 (24000/1001) FPS
    Color space                              : YUV
    Chroma subsampling                       : 4:2:0
    Bit depth                                : 8 bits
    Scan type                                : Progressive
    Bits/(Pixel*Frame)                       : 0.333
    Stream size                              : 13.2 GiB (87%)
    Title                                    : Taxi Driver (1976) Full 1080p Latino
    Writing library                          : x264 core 148 r2708 86b7198
    Encoding settings                        : cabac=1 / ref=4 / deblock=1:0:0 / analyse=0x3:0x133 / me=esa / subme=10 / psy=1 / psy_rd=1.00:0.00 / mixed_ref=1 / me_range=24 / chroma_me=1 / trellis=2 / 8x8dct=1 / cqm=0 / deadzone=21,11 / fast_pskip=1 / chroma_qp_offset=-2 / threads=34 / lookahead_threads=5 / sliced_threads=0 / nr=0 / decimate=1 / interlaced=0 / bluray_compat=0 / constrained_intra=0 / bframes=8 / b_pyramid=2 / b_adapt=2 / b_bias=0 / direct=3 / weightb=1 / open_gop=0 / weightp=2 / keyint=240 / keyint_min=24 / scenecut=40 / intra_refresh=0 / rc_lookahead=60 / rc=crf / mbtree=1 / crf=20.0 / qcomp=0.60 / qpmin=0 / qpmax=69 / qpstep=4 / vbv_maxrate=62500 / vbv_bufsize=78125 / crf_max=0.0 / nal_hrd=none / filler=0 / ip_ratio=1.40 / aq=1:1.00
    Language                                 : English
    Default                                  : Yes
    Forced                                   : No
    Color range                              : Limited
    Color primaries                          : BT.709
    Transfer characteristics                 : BT.709
    Matrix coefficients                      : BT.709
    Statistics Tags Issue                    : mkvmerge v15.0.0 ('Duel with the Devil') 64-bit 2017-11-26 05:54:48 / mkvmerge v15.0.0 ('Duel with the Devil') 64-bit 2017-11-26 05:54:48 / UTC 2017-11-25T06:58:13Z
    FromStats_BitRate                        : 16913204
    FromStats_Duration                       : 01:53:47.780000000
    FromStats_FrameCount                     : 163703
    FromStats_StreamSize                     : 14434955328

    Audio #1
    ID                                       : 2
    Format                                   : AC-3
    Format/Info                              : Audio Coding 3
    Format settings, Endianness              : Big
    Codec ID                                 : A_AC3
    Duration                                 : 1 h 53 min
    Bit rate mode                            : Constant
    Bit rate                                 : 640 kb/s
    Channel(s)                               : 6 channels
    Channel positions                        : Front: L C R, Side: L R, LFE
    Sampling rate                            : 48.0 kHz
    Frame rate                               : 31.250 FPS (1536 SPF)
    Bit depth                                : 16 bits
    Compression mode                         : Lossy
    Stream size                              : 521 MiB (3%)
    Title                                    : Latino-AC3
    Language                                 : Spanish
    Service kind                             : Complete Main
    Default                                  : Yes
    Forced                                   : No
    Statistics Tags Issue                    : mkvmerge v15.0.0 ('Duel with the Devil') 64-bit 2017-11-26 05:54:48 / mkvmerge v15.0.0 ('Duel with the Devil') 64-bit 2017-11-26 05:54:48 / UTC 2017-11-25T06:58:13Z
    FromStats_BitRate                        : 640000
    FromStats_Duration                       : 01:53:47.840000000
    FromStats_FrameCount                     : 213370
    FromStats_StreamSize                     : 546227200

    Audio #2
    ID                                       : 3
    Format                                   : DTS
    Format/Info                              : Digital Theater Systems
    Mode                                     : 16
    Format settings, Endianness              : Big
    Codec ID                                 : A_DTS
    Duration                                 : 1 h 53 min
    Bit rate mode                            : Constant
    Bit rate                                 : 1 509 kb/s
    Channel(s)                               : 6 channels
    Channel positions                        : Front: L C R, Side: L R, LFE
    Sampling rate                            : 48.0 kHz
    Frame rate                               : 93.750 FPS (512 SPF)
    Bit depth                                : 16 bits
    Compression mode                         : Lossy
    Stream size                              : 1.20 GiB (8%)
    Title                                    : Ingles-DTS
    Language                                 : English
    Default                                  : No
    Forced                                   : No
    Statistics Tags Issue                    : mkvmerge v15.0.0 ('Duel with the Devil') 64-bit 2017-11-26 05:54:48 / mkvmerge v15.0.0 ('Duel with the Devil') 64-bit 2017-11-26 05:54:48 / UTC 2017-11-25T06:58:13Z
    FromStats_BitRate                        : 1508999
    FromStats_Duration                       : 01:53:47.819000000
    FromStats_FrameCount                     : 640108
    FromStats_StreamSize                     : 1287897296

    Text #1
    ID                                       : 4
    Format                                   : PGS
    Muxing mode                              : zlib
    Codec ID                                 : S_HDMV/PGS
    Codec ID/Info                            : Picture based subtitle format used on BDs/HD-DVDs
    Language                                 : Spanish
    Default                                  : No
    Forced                                   : No
    Statistics Tags Issue                    : mkvmerge v15.0.0 ('Duel with the Devil') 64-bit 2017-11-26 05:54:48 / mkvmerge v15.0.0 ('Duel with the Devil') 64-bit 2017-11-26 05:54:48 / UTC 2017-11-25T06:58:13Z
    FromStats_BitRate                        : 27877
    FromStats_Duration                       : 01:48:00.057000000
    FromStats_FrameCount                     : 2514
    FromStats_StreamSize                     : 22580849

    Text #2
    ID                                       : 5
    Format                                   : PGS
    Muxing mode                              : zlib
    Codec ID                                 : S_HDMV/PGS
    Codec ID/Info                            : Picture based subtitle format used on BDs/HD-DVDs
    Language                                 : English
    Default                                  : No
    Forced                                   : No
    Statistics Tags Issue                    : mkvmerge v15.0.0 ('Duel with the Devil') 64-bit 2017-11-26 05:54:48 / mkvmerge v15.0.0 ('Duel with the Devil') 64-bit 2017-11-26 05:54:48 / UTC 2017-11-25T06:58:13Z
    FromStats_BitRate                        : 34301
    FromStats_Duration                       : 01:50:02.429000000
    FromStats_FrameCount                     : 2689
    FromStats_StreamSize                     : 28309217

  • Peso: 15.2 GiB

Sinopsis

Para sobrellevar el insomnio crónico que sufre después de su regreso de Vietnam, Travis decide trabajar como taxista nocturno. Como individuo tiene poco contacto con la gente, pero observa la violencia y desolación en la que se hunde la ciudad de Nueva York. Travis anota en su diario todas sus impresiones, hasta que un día decide pasar a la acción.

Ficha técnica

Video trailer de la película

Enlaces de descarga

Rip de Bluray

Descargar Taxi Driver (1976) Full 1080p Latino




Aportes de DPeliculasHDmega la pass es:dpeliculashdmega.org Aportes de CinemaniaHD la pass es:cinemaniahdd.com
Guardado en : Crimen , Drama , FULL 1080p Plateadas

Películas relacionadas

  • La balada de Buster Scruggs (2018) NF 1080p Latino

    2018
    La balada de Buster Scruggs (2018) NF 1080p Latino

    0.0 2h 12m 2018

    Los siempre singulares Joel y Ethan Cohen escriben y dirigen esta antología de seis historias del Salvaje...

    Director: Joel Coen

    Género: Comedia

    Actores: Zoe Kazan

  • La pequeña brujita (2018) AMZN 1080p Latino

    2018
    La pequeña brujita (2018) AMZN 1080p Latino

    5.0 1h 43m 2018

    Descargar La pequeña brujita (2018) AMZN 1080p Latino, Mega, Google Drive. La pequeña bruja sólo tiene...

    Director: Mike Schaerer

    Género: Comedia

    Actores: Verena Bosshard

  • Puzzle (2018) Web-DL 1080p Latino

    2018
    Puzzle (2018) Web-DL 1080p Latino

    0.0 1h 43m 2018

    Descargar Puzzle (2018) Web-DL 1080p Latino; Mega, Google Drive. Una mujer acude a Atlantic City para...

    Director: Marc Turtletaub

    Género: Drama

    Actores: Myrna Cabello

Comentarios 5
  • GON KILLUA - 02 diciembre, 2017

    BUENA PELICULA . ARIGATO

  • JosePock - 29 noviembre, 2017

    Demasiado pesada, 5 están bien pero 15 ya no.gracias

  • Andrew - 26 noviembre, 2017

    La tendran menos pesada????

    • Dpelis2 - 26 noviembre, 2017

      Con ese peso es la mejor calidad posible…

    • dpelis - 26 noviembre, 2017

      no estimado. solo los estrenos se publican en portada negra, de ahi clasico solo plateada. saludos