Taxi Driver (1976) 40th Anniversary Edition REMUX 1080p Latino

1.196 vistas
1 estrella2 estrellas3 estrellas4 estrellas5 estrellas (3 votos, promedio: 5,00 de 5)
Cargando...

Información de Taxi Driver (1976) 40th Anniversary Edition REMUX 1080p Latino

Datos de la película

  • Calidad: Full 1080p
  • Audio: Español Latino AC3 5.1 BLURAY - Ingles DTS 5.1 BLURAY
  • Subtitulos: Español Latino PGS
  • Resolución: 1920x1080p
  • Formato: MKV
  • Codec: H.264
  • Encoder: Dracarys
  • Mediainfo: Clic para Mostrar Datos Ver
  • Format                      : Matroska
    Format version              : Version 4
    File size                   : 19.7 GiB
    Duration                    : 1 h 53 min
    Overall bit rate mode       : Variable
    Overall bit rate            : 24.7 Mb/s
    Movie name                  : Taxi Driver (1976) 40th Anniversary Edition REMUX 1080p Latino - CMHDD
    Encoded date                : UTC 2021-07-20 01:15:51
    Writing application         : mkvmerge v56.1.0 ('My Friend') 64-bit
    Writing library             : libebml v1.4.2 + libmatroska v1.6.4
    Cover                       : Yes
    Attachments                 : cover.jpg

    Video
    ID                          : 1
    ID in the original source m : 4113 (0x1011)
    Format                      : AVC
    Format/Info                 : Advanced Video Codec
    Format profile              : High@L4.1
    Format settings             : CABAC / 2 Ref Frames
    Format settings, CABAC      : Yes
    Format settings, Reference  : 2 frames
    Codec ID                    : V_MPEG4/ISO/AVC
    Duration                    : 1 h 53 min
    Bit rate mode               : Variable
    Bit rate                    : 21.9 Mb/s
    Width                       : 1 920 pixels
    Height                      : 1 080 pixels
    Display aspect ratio        : 16:9
    Frame rate mode             : Constant
    Frame rate                  : 23.976 (24000/1001) FPS
    Color space                 : YUV
    Chroma subsampling          : 4:2:0
    Bit depth                   : 8 bits
    Scan type                   : Progressive
    Bits/(Pixel*Frame)          : 0.441
    Stream size                 : 17.4 GiB (89%)
    Default                     : Yes
    Forced                      : No
    Original source medium      : Blu-ray

    Audio #1
    ID                          : 2
    ID in the original source m : 4352 (0x1100)
    Format                      : DTS XLL
    Format/Info                 : Digital Theater Systems
    Commercial name             : DTS-HD Master Audio
    Codec ID                    : A_DTS
    Duration                    : 1 h 53 min
    Bit rate mode               : Variable
    Bit rate                    : 2 144 kb/s
    Channel(s)                  : 6 channels
    Channel layout              : C L R Ls Rs LFE
    Sampling rate               : 48.0 kHz
    Frame rate                  : 93.750 FPS (512 SPF)
    Bit depth                   : 16 bits
    Compression mode            : Lossless
    Stream size                 : 1.70 GiB (9%)
    Language                    : English
    Default                     : No
    Forced                      : No
    Original source medium      : Blu-ray

    Audio #2
    ID                          : 3
    ID in the original source m : 4363 (0x110B)
    Format                      : AC-3
    Format/Info                 : Audio Coding 3
    Commercial name             : Dolby Digital
    Codec ID                    : A_AC3
    Duration                    : 1 h 53 min
    Bit rate mode               : Constant
    Bit rate                    : 640 kb/s
    Channel(s)                  : 6 channels
    Channel layout              : L R C LFE Ls Rs
    Sampling rate               : 48.0 kHz
    Frame rate                  : 31.250 FPS (1536 SPF)
    Compression mode            : Lossy
    Stream size                 : 521 MiB (3%)
    Language                    : Spanish
    Service kind                : Complete Main
    Default                     : Yes
    Forced                      : No
    Original source medium      : Blu-ray

    Text #1
    ID                          : 4
    ID in the original source m : 4627 (0x1213)
    Format                      : PGS
    Muxing mode                 : zlib
    Codec ID                    : S_HDMV/PGS
    Codec ID/Info               : Picture based subtitle format used on BDs/HD-DVDs
    Duration                    : 1 h 48 min
    Bit rate                    : 27.9 kb/s
    Count of elements           : 2514
    Stream size                 : 21.5 MiB (0%)
    Language                    : Spanish
    Default                     : No
    Forced                      : No
    Original source medium      : Blu-ray

    Text #2
    ID                          : 5
    ID in the original source m : 4636 (0x121C)
    Format                      : PGS
    Muxing mode                 : zlib
    Codec ID                    : S_HDMV/PGS
    Codec ID/Info               : Picture based subtitle format used on BDs/HD-DVDs
    Duration                    : 1 h 51 min
    Bit rate                    : 41.7 kb/s
    Count of elements           : 3185
    Stream size                 : 33.2 MiB (0%)
    Language                    : Spanish
    Default                     : No
    Forced                      : No
    Original source medium      : Blu-ray

    Menu
    00:00:00.000                : Chapter 01
    00:10:59.033                : Chapter 02
    00:20:05.037                : Chapter 03
    00:28:21.032                : Chapter 04
    00:33:12.198                : Chapter 05
    00:40:11.575                : Chapter 06
    00:44:03.641                : Chapter 07
    00:51:42.140                : Chapter 08
    01:01:10.541                : Chapter 09
    01:08:11.796                : Chapter 10
    01:14:49.026                : Chapter 11
    01:24:46.039                : Chapter 12
    01:29:42.752                : Chapter 13
    01:34:11.979                : Chapter 14
    01:38:02.418                : Chapter 15
    01:45:57.893                : Chapter 16

  • Peso: 19.7 GiB

Sinopsis

Para sobrellevar el insomnio crónico que sufre después de su regreso de Vietnam, Travis decide trabajar como taxista nocturno. Como individuo tiene poco contacto con la gente, pero observa la violencia y desolación en la que se hunde la ciudad de Nueva York. Travis anota en su diario todas sus impresiones, hasta que un día decide pasar a la acción.

Ficha técnica

Video trailer de la película

Enlaces de descarga

Rip de Bluray

Descargar Taxi Driver (1976) 40th Anniversary Edition REMUX 1080p Latino


Aportes de DPeliculasHDmega la pass es:dpeliculashdmega.org Aportes de CinemaniaHD la pass es:cinemaniahdd.com
Guardado en : Crimen , Drama , Remux

Películas relacionadas

  • En liberté! (2018) WEB-DL 1080p Latino

    En liberté! (2018) WEB-DL 1080p Latino

    2018
    En liberté! (2018) WEB-DL 1080p Latino

    5.0 1h 48m 2018

    El detective Yvonne es la viuda del jefe de policía Santi, un héroe local en un pueblo de la Riviera...

    Director: Pierre Salvadori

    Género: Comedia

    Actores: Vincent Elbaz

  • S.W.A.T (2019) WEB-DL 1080p Latino

    S.W.A.T (2019) WEB-DL 1080p Latino

    2019
    S.W.A.T (2019) WEB-DL 1080p Latino

    5.0 0h 0m 2019

    Una Unidad de Fuerzas Especiales ha organizado una serie de ejercicios de combate para seleccionar a...

    Director: Ding Sheng

    Género: Acción

    Actores: Zhao Xiaorui

  • Servants of War (2019) WEB-DL 1080p Latino

    Servants of War (2019) WEB-DL 1080p Latino

    2019
    Servants of War (2019) WEB-DL 1080p Latino

    5.0 1h 38m 2019

    El conocido profesor Professor Jerzy Abramski es asesinado. De su investigación se encarga el inspector...

    Director: Mariusz Gawryś

    Género: Crimen

    Actores: Zbigniew Stryj

  • Submission (2019) WEB-DL 1080p Latino

    Submission (2019) WEB-DL 1080p Latino

    2019
    Submission (2019) WEB-DL 1080p Latino

    5.0 1h 34m 2019

    Después de que dos marines regresan a casa después de un interrogatorio de ISIS, uno lucha por sobrevivir...

    Director: J.M. Berrios

    Género: Drama

    Actores: Scott Pryor

Taxi Driver (1976) 40th Anniversary Edition REMUX 1080p Latino pelicula full hd, Taxi Driver (1976) 40th Anniversary Edition REMUX 1080p Latino mega latino, Taxi Driver (1976) 40th Anniversary Edition REMUX 1080p Latino 4k latino, Taxi Driver (1976) 40th Anniversary Edition REMUX 1080p Latino pelicula completa, Taxi Driver (1976) 40th Anniversary Edition REMUX 1080p Latino descargar gratis, descargar Taxi Driver (1976) 40th Anniversary Edition REMUX 1080p Latino pelicula latino, Taxi Driver (1976) 40th Anniversary Edition REMUX 1080p Latino 1 link mega, Taxi Driver (1976) 40th Anniversary Edition REMUX 1080p Latino 1 link google drive, Taxi Driver (1976) 40th Anniversary Edition REMUX 1080p Latino hd 1080p latino.
Comentarios 0