×

¿Problemas para descargar con Mozilla, EDGE? Deshabilita la opción "Abrir vinculos en una pestaña nueva" tal como lo muestra ésta imagen.

Tarzan (1999) Full HD 1080p Latino – CMHDD

907 vistas

Información de Tarzan (1999) Full HD 1080p Latino – CMHDD

Datos de la película

  • Calidad: Full 1080p
  • Audio: Se especifica abajo de la Sinopsis
  • Subtitulos: Español Latino SRT- FORZADOS SRT
  • Resolución: 1920x1080p
  • Formato: MKV
  • Codec: H.264
  • Encoder: Dracarys
  • Mediainfo: Clic para Mostrar Datos Ver
  • Format                      : Matroska
    Format version              : Version 4
    File size                   : 5.67 GiB
    Duration                    : 1 h 28 min
    Overall bit rate mode       : Variable
    Overall bit rate            : 9 177 kb/s
    Movie name                  : Tarzan (1999) Full HD 1080p Latino - CMHDD
    Encoded date                : UTC 2020-06-04 02:08:00
    Writing application         : mkvmerge v46.0.0 ('No Deeper Escape') 64-bit
    Writing library             : libebml v1.3.10 + libmatroska v1.5.2

    Video
    ID                          : 1
    Format                      : AVC
    Format/Info                 : Advanced Video Codec
    Format profile              : High@L4.1
    Format settings             : CABAC / 4 Ref Frames
    Format settings, CABAC      : Yes
    Format settings, Reference  : 4 frames
    Codec ID                    : V_MPEG4/ISO/AVC
    Duration                    : 1 h 28 min
    Bit rate                    : 4 532 kb/s
    Width                       : 1 920 pixels
    Height                      : 1 080 pixels
    Display aspect ratio        : 16:9
    Frame rate mode             : Constant
    Frame rate                  : 23.976 (24000/1001) FPS
    Color space                 : YUV
    Chroma subsampling          : 4:2:0
    Bit depth                   : 8 bits
    Scan type                   : Progressive
    Bits/(Pixel*Frame)          : 0.091
    Stream size                 : 2.80 GiB (49%)
    Writing library             : x264 core 157 r2935 545de2f
    Encoding settings           : cabac=1 / ref=4 / deblock=1:0:0 / analyse=0x3:0x133 / me=tesa / subme=11 / psy=1 / psy_rd=1.00:0.00 / mixed_ref=1 / me_range=24 / chroma_me=1 / trellis=2 / 8x8dct=1 / cqm=0 / deadzone=21,11 / fast_pskip=0 / chroma_qp_offset=-2 / threads=24 / lookahead_threads=6 / sliced_threads=0 / nr=0 / decimate=1 / interlaced=0 / bluray_compat=0 / constrained_intra=0 / bframes=16 / b_pyramid=2 / b_adapt=2 / b_bias=0 / direct=3 / weightb=1 / open_gop=0 / weightp=2 / keyint=240 / keyint_min=24 / scenecut=40 / intra_refresh=0 / rc_lookahead=60 / rc=crf / mbtree=1 / crf=20.0 / qcomp=0.60 / qpmin=0 / qpmax=69 / qpstep=4 / vbv_maxrate=62500 / vbv_bufsize=78125 / crf_max=0.0 / nal_hrd=none / filler=0 / ip_ratio=1.40 / aq=1:1.00
    Default                     : Yes
    Forced                      : No
    Color range                 : Limited
    Color primaries             : BT.709
    Transfer characteristics    : BT.709
    Matrix coefficients         : BT.709

    Audio #1
    ID                          : 2
    Format                      : AC-3
    Format/Info                 : Audio Coding 3
    Commercial name             : Dolby Digital
    Codec ID                    : A_AC3
    Duration                    : 1 h 28 min
    Bit rate mode               : Constant
    Bit rate                    : 640 kb/s
    Channel(s)                  : 5 channels
    Channel layout              : L R C Ls Rs
    Sampling rate               : 48.0 kHz
    Frame rate                  : 31.250 FPS (1536 SPF)
    Compression mode            : Lossy
    Stream size                 : 404 MiB (7%)
    Language                    : Spanish
    Service kind                : Complete Main
    Default                     : Yes
    Forced                      : No

    Audio #2
    ID                          : 3
    Format                      : DTS XLL
    Format/Info                 : Digital Theater Systems
    Commercial name             : DTS-HD Master Audio
    Codec ID                    : A_DTS
    Duration                    : 1 h 28 min
    Bit rate mode               : Variable
    Bit rate                    : 3 993 kb/s
    Channel(s)                  : 5 channels
    Channel layout              : C L R Ls Rs
    Sampling rate               : 48.0 kHz
    Frame rate                  : 93.750 FPS (512 SPF)
    Bit depth                   : 24 bits
    Compression mode            : Lossless
    Stream size                 : 2.47 GiB (44%)
    Language                    : English
    Default                     : No
    Forced                      : No

    Text #1
    ID                          : 4
    Format                      : UTF-8
    Codec ID                    : S_TEXT/UTF8
    Codec ID/Info               : UTF-8 Plain Text
    Duration                    : 1 s 418 ms
    Bit rate                    : 101 b/s
    Count of elements           : 1
    Stream size                 : 18.0 Bytes (0%)
    Title                       : SRT-Forzados
    Language                    : Spanish
    Default                     : Yes
    Forced                      : No

    Text #2
    ID                          : 5
    Format                      : UTF-8
    Codec ID                    : S_TEXT/UTF8
    Codec ID/Info               : UTF-8 Plain Text
    Duration                    : 1 h 21 min
    Bit rate                    : 37 b/s
    Count of elements           : 809
    Stream size                 : 22.3 KiB (0%)
    Title                       : SRT-Completos
    Language                    : Spanish
    Default                     : No
    Forced                      : No

    Text #3
    ID                          : 6
    Format                      : PGS
    Muxing mode                 : zlib
    Codec ID                    : S_HDMV/PGS
    Codec ID/Info               : Picture based subtitle format used on BDs/HD-DVDs
    Duration                    : 1 h 21 min
    Bit rate                    : 40.0 kb/s
    Count of elements           : 1620
    Stream size                 : 23.2 MiB (0%)
    Title                       : PGS-Completos
    Default                     : No
    Forced                      : No

    Menu
    00:00:00.000                : :Main Title/"Two Worlds"
    00:03:22.202                : :Kala's Discovery
    00:06:08.785                : :A Narrow Escape
    00:08:17.580                : :Adopted
    00:11:01.619                : :"You'll Be in My Heart"
    00:12:38.716                : :Young Tarzan
    00:14:20.026                : :Pest Control
    00:16:45.880                : :Baby Tantor
    00:18:01.956                : :Piranha!
    00:18:59.013                : :Outcast
    00:20:39.572                : :Hand to Hand
    00:22:39.775                : :"Son of Man!"
    00:25:26.775                : :Monkeying Around
    00:26:20.454                : :Sabor Attacks
    00:30:40.297                : :Explores
    00:33:48.401                : :The Baby Baboon
    00:34:49.713                : :Tarzan to the Rescue
    00:37:27.120                : :Treetop Introductions
    00:41:32.907                : :"Trashin' the Camp"
    00:45:37.026                : :Jane's Rant
    00:46:46.637                : :Tarzan Confronts Kerchak
    00:48:32.034                : :Tarzan Drops In
    00:50:12.801                : :"Strangers Like Me"
    00:54:06.660                : :The Boat Arrives
    00:56:49.948                : :Distracting Kerchak
    00:57:51.134                : :Meeting Tarzan's Family
    01:01:27.893                : :Tarzan Defies Kerchak
    01:03:21.006                : :The Truth
    01:07:11.319                : :Clayton's Trap
    01:09:17.028                : :"We Got a Boat to Catch"
    01:11:39.212                : :Ambush
    01:14:52.321                : :A Fight to the Finish
    01:16:34.298                : :"My Son"
    01:19:04.740                : :Goodbyes
    01:21:27.091                : :Our Family
    01:22:21.895                : :End Credits

  • Peso: 5.67 GiB

Sinopsis

Cuando Kala, una gorila hembra, encuentra un niño huérfano en la jungla, decide adoptarlo como su propio hijo a pesar de la oposición de Kerchak, el jefe de la manada. Junto a Terk, un gracioso mono y Tantor, un elefante algo neurótico, Tazán crecerá en la jungla desarrollando los instintos de los animales y aprendiendo a deslizarse entre los árboles a velocidad de vértigo. Pero cuando una expedición se adentra en la jungla y Tarzán conoce a Jane, descubrirá quién es realmente y cuál es el mundo al que pertenece…

 

Latino: AC3 5.0  –  Ingles: DTS-HD MA 5.0

Ficha técnica

Video trailer de la película

Enlaces de descarga

Rip de Bluray

Descargar Tarzan (1999) Full HD 1080p Latino – CMHDD




Aportes de DPeliculasHDmega la pass es:dpeliculashdmega.org Aportes de CinemaniaHD la pass es:cinemaniahdd.com Aportes recientes:cinemaniahdd.net

Películas relacionadas

descargar Tarzan (1999) Full HD 1080p Latino – CMHDD Full 1080p 1080p gratis, Tarzan (1999) Full HD 1080p Latino – CMHDD Full 1080p mega 1 link, Tarzan (1999) Full HD 1080p Latino – CMHDD Full 1080p pelicula completa, descargar Tarzan (1999) Full HD 1080p Latino – CMHDD Full 1080p gratis en mega.

Tarzan (1999) Full HD 1080p Latino – CMHDD pelicula full hd, Tarzan (1999) Full HD 1080p Latino – CMHDD mega latino, Tarzan (1999) Full HD 1080p Latino – CMHDD 4k latino, Tarzan (1999) Full HD 1080p Latino – CMHDD pelicula completa, Tarzan (1999) Full HD 1080p Latino – CMHDD descargar gratis, descargar Tarzan (1999) Full HD 1080p Latino – CMHDD pelicula latino, Tarzan (1999) Full HD 1080p Latino – CMHDD 1 link mega, Tarzan (1999) Full HD 1080p Latino – CMHDD 1 link google drive, Tarzan (1999) Full HD 1080p Latino – CMHDD hd 1080p latino.
Comentarios 2