×

¿Problemas para descargar con Mozilla, EDGE? Deshabilita la opción "Abrir vinculos en una pestaña nueva" tal como lo muestra ésta imagen.

Tadeo 3 La Maldición de la Momia (2022) REMUX 1080p Latino

347 vistas

Información de Tadeo 3 La Maldición de la Momia (2022) REMUX 1080p Latino

Datos de la película

  • Calidad: Full 1080p
  • Audio: Se especifica abajo de la Sinopsis
  • Subtitulos: Español Latino SRT- FORZADOS SRT
  • Resolución: 1920x1080p
  • Formato: MKV
  • Codec: H.264
  • Encoder: Melkor
  • Mediainfo: Clic para Mostrar Datos Ver
  • Tadeo 3 La Maldición de la Momia (2022) REMUX 1080p Latino.mkv
    Format                      : Matroska
    Format version              : Version 4
    File size                   : 17.0 GiB
    Duration                    : 1 h 29 min
    Overall bit rate mode       : Variable
    Overall bit rate            : 27.3 Mb/s
    Movie name                  : Tad The Lost Explorer And The Emerald Tablet (2022) CinemaniaHDD.Net
    Encoded date                : UTC 2023-03-08 04:03:43
    Writing application         : mkvmerge v56.1.0 ('My Friend') 64-bit
    Writing library             : libebml v1.4.2 + libmatroska v1.6.4
    Attachments                 : CINEMANIAHD.png

    Video
    ID                          : 1
    ID in the original source m : 4113 (0x1011)
    Format                      : AVC
    Format/Info                 : Advanced Video Codec
    Format profile              : Main@L4.1
    Format settings             : CABAC / 4 Ref Frames
    Format settings, CABAC      : Yes
    Format settings, Reference  : 4 frames
    Codec ID                    : V_MPEG4/ISO/AVC
    Duration                    : 1 h 29 min
    Bit rate mode               : Variable
    Bit rate                    : 25.0 Mb/s
    Maximum bit rate            : 30.0 Mb/s
    Width                       : 1 920 pixels
    Height                      : 1 080 pixels
    Display aspect ratio        : 16:9
    Frame rate mode             : Constant
    Frame rate                  : 23.976 (24000/1001) FPS
    Color space                 : YUV
    Chroma subsampling          : 4:2:0
    Bit depth                   : 8 bits
    Scan type                   : Progressive
    Bits/(Pixel*Frame)          : 0.503
    Stream size                 : 15.6 GiB (92%)
    Title                       : REMUX HD1080p [CinemaniaHDD]
    Default                     : Yes
    Forced                      : Yes
    Color range                 : Limited
    Color primaries             : BT.709
    Transfer characteristics    : BT.709
    Matrix coefficients         : BT.709
    Original source medium      : Blu-ray

    Audio #1
    ID                          : 2
    Format                      : AC-3
    Format/Info                 : Audio Coding 3
    Commercial name             : Dolby Digital
    Codec ID                    : A_AC3
    Duration                    : 1 h 29 min
    Bit rate mode               : Constant
    Bit rate                    : 384 kb/s
    Channel(s)                  : 6 channels
    Channel layout              : L R C LFE Ls Rs
    Sampling rate               : 48.0 kHz
    Frame rate                  : 31.250 FPS (1536 SPF)
    Compression mode            : Lossy
    Stream size                 : 245 MiB (1%)
    Title                       : Español Latino [CinemaniaHDD]
    Language                    : Spanish
    Service kind                : Complete Main
    Default                     : Yes
    Forced                      : Yes

    Audio #2
    ID                          : 3
    ID in the original source m : 4352 (0x1100)
    Format                      : DTS XLL
    Format/Info                 : Digital Theater Systems
    Commercial name             : DTS-HD Master Audio
    Codec ID                    : A_DTS
    Duration                    : 1 h 29 min
    Bit rate mode               : Variable
    Bit rate                    : 1 904 kb/s
    Channel(s)                  : 6 channels
    Channel layout              : C L R Ls Rs LFE
    Sampling rate               : 48.0 kHz
    Frame rate                  : 93.750 FPS (512 SPF)
    Bit depth                   : 16 bits
    Compression mode            : Lossless
    Stream size                 : 1.19 GiB (7%)
    Title                       : Español Castellano [CinemaniaHDD]
    Language                    : Spanish
    Default                     : No
    Forced                      : No
    Original source medium      : Blu-ray

    Text #1
    ID                          : 4
    ID in the original source m : 4608 (0x1200)
    Format                      : PGS
    Muxing mode                 : zlib
    Codec ID                    : S_HDMV/PGS
    Codec ID/Info               : Picture based subtitle format used on BDs/HD-DVDs
    Duration                    : 1 h 22 min
    Bit rate                    : 51.9 kb/s
    Count of elements           : 2480
    Stream size                 : 30.5 MiB (0%)
    Title                       : Español-PGS [CinemaniaHDD]
    Language                    : Spanish
    Default                     : No
    Forced                      : No
    Original source medium      : Blu-ray

    Text #2
    ID                          : 5
    Format                      : UTF-8
    Codec ID                    : S_TEXT/UTF8
    Codec ID/Info               : UTF-8 Plain Text
    Duration                    : 1 h 17 min
    Bit rate                    : 0 b/s
    Count of elements           : 9
    Stream size                 : 316 Bytes (0%)
    Title                       : Forzados-SRT [CinemaniaHDD]
    Language                    : Spanish
    Default                     : Yes
    Forced                      : Yes

    Text #3
    ID                          : 6
    Format                      : UTF-8
    Codec ID                    : S_TEXT/UTF8
    Codec ID/Info               : UTF-8 Plain Text
    Duration                    : 1 h 24 min
    Bit rate                    : 60 b/s
    Count of elements           : 1163
    Stream size                 : 37.3 KiB (0%)
    Title                       : Español-SRT [CinemaniaHDD]
    Language                    : Spanish
    Default                     : No
    Forced                      : No

    Menu
    00:00:00.000                : Chapter 01
    00:08:01.500                : Chapter 02
    00:18:49.750                : Chapter 03
    00:25:33.500                : Chapter 04
    00:31:37.500                : Chapter 05
    00:40:04.000                : Chapter 06
    00:47:50.750                : Chapter 07
    00:55:57.625                : Chapter 08
    01:03:26.250                : Chapter 09
    01:11:23.500                : Chapter 10
    01:23:31.625                : Chapter 11

  • Peso: 17.0 GiB

Sinopsis

Descargar Tadeo 3 La Maldición de la Momia (2022) REMUX 1080p Latino. A Tadeo le encantaría que sus colegas arqueólogos le aceptasen como a uno más, pero siempre acaba liándola: destroza un sarcófago y desata un conjuro que pone en peligro la vida de sus amigos, Momia, Jeff y Belzoni. Con todos en contra y solo ayudado por Sara, Tadeo emprenderá una huida llena de aventuras, que le llevará de México a Chicago y de París a Egipto, para encontrar la manera de acabar con la maldición de la momia.

Español Latino AC3 5.1 Web – Castellano DTS-HD 5.1 BD

Ficha técnica

Video trailer de la película

Enlaces de descarga

Rip de Bluray

Descargar Tadeo 3 La Maldición de la Momia (2022) REMUX 1080p Latino




Aportes de DPeliculasHDmega la pass es:dpeliculashdmega.org Aportes de CinemaniaHD la pass es:cinemaniahdd.com Aportes recientes:cinemaniahdd.net

Películas relacionadas

  • Find Me Falling (2024) NF WEB-DL 1080p Latino

    Find Me Falling (2024) NF WEB-DL 1080p Latino

    2024
    Find Me Falling (2024) NF WEB-DL 1080p Latino

    0h 0m 2024

    Descargar Find Me Falling (2024) NF WEB-DL 1080p Latino. Tras el fracaso del disco con el que pensaba...

    Director: Stelana Kliris

    Género: Comedia

    Actores: Yiola Klitou

  • Goyo (2024) NF WEB-DL 1080p Latino

    Goyo (2024) NF WEB-DL 1080p Latino

    2024
    Goyo (2024) NF WEB-DL 1080p Latino

    1h 47m 2024

    Descargar Goyo (2024) NF WEB-DL 1080p Latino. Goyo es un hombre con Asperger, fanático de Van Gogh,...

    Director: Pablo Discianni

    Género: Comedia

    Actores: Walter Fabian Andrade

  • Inmaculada (2024) REMUX 1080p Latino

    Inmaculada (2024) REMUX 1080p Latino

    2024
    Inmaculada (2024) REMUX 1080p Latino

    1h 29m 2024

    Descargar Inmaculada (2024) REMUX 1080p Latino. Cecilia, una mujer de fe devota, recibe una calurosa...

    Director: Valentina Scuro

    Género: Misterio

    Actores: Viviane Florentine Nicolai

  • Cobra Kai (2024) Temporada 6 NF WEB-DL 1080p Latino

    Cobra Kai (2024) Temporada 6 NF WEB-DL 1080p Latino

    2018
    Cobra Kai (2024) Temporada 6 NF WEB-DL 1080p Latino

    0h 0m 2018

    Descargar Cobra Kai (2024) Temporada 6 NF WEB-DL 1080p Latino. Cobra Kai tiene lugar treinta y cuatro...

    Director: Josh Heald

    Género: Action & Adventure

    Actores: Xolo Mariduena

descargar Tadeo 3 La Maldición de la Momia (2022) REMUX 1080p Latino Full 1080p 1080p gratis, Tadeo 3 La Maldición de la Momia (2022) REMUX 1080p Latino Full 1080p mega 1 link, Tadeo 3 La Maldición de la Momia (2022) REMUX 1080p Latino Full 1080p pelicula completa, descargar Tadeo 3 La Maldición de la Momia (2022) REMUX 1080p Latino Full 1080p gratis en mega.

Tadeo 3 La Maldición de la Momia (2022) REMUX 1080p Latino pelicula full hd, Tadeo 3 La Maldición de la Momia (2022) REMUX 1080p Latino mega latino, Tadeo 3 La Maldición de la Momia (2022) REMUX 1080p Latino 4k latino, Tadeo 3 La Maldición de la Momia (2022) REMUX 1080p Latino pelicula completa, Tadeo 3 La Maldición de la Momia (2022) REMUX 1080p Latino descargar gratis, descargar Tadeo 3 La Maldición de la Momia (2022) REMUX 1080p Latino pelicula latino, Tadeo 3 La Maldición de la Momia (2022) REMUX 1080p Latino 1 link mega, Tadeo 3 La Maldición de la Momia (2022) REMUX 1080p Latino 1 link google drive, Tadeo 3 La Maldición de la Momia (2022) REMUX 1080p Latino hd 1080p latino.
Comentarios 0