T2 Trainspotting (2017) 720p Latino

948 vistas
1 estrella2 estrellas3 estrellas4 estrellas5 estrellas (Ninguna valoración todavía)
Cargando…

Información de T2 Trainspotting (2017) 720p Latino

Datos de la película

  • Calidad: 720p
  • Audio: Español Latino AC3 5.1 DVD - Ingles AC3 5.1 BLURAY
  • Subtitulos: Español Latino SRT - Ingles SRT
  • Resolución: 1280x690
  • Formato: MKV
  • Codec: H.264
  • Encoder: Frank19
  • Mediainfo: Clic para Mostrar Datos Ver
  • T2.trainspotting.2017.1080p.LATINO.mkv
    Format                      : Matroska
    Format version              : Version 4 / Version 2
    File size                   : 2.06 GiB
    Duration                    : 1 h 57 min
    Overall bit rate            : 2 518 kb/s
    Movie name                  : DPeliculasHDMega.ORG
    Encoded date                : UTC 2017-06-20 00:35:37 / UTC 2017-06-19T22:48:23Z
    Writing application         : mkvmerge v10.0.0 ('To Drown In You') 64bit
    Writing library             : libebml v1.3.4 + libmatroska v1.4.5 / Lavf57.7.2

    Video
    ID                          : 1
    Format                      : AVC
    Format/Info                 : Advanced Video Codec
    Format profile              : High@L4.1
    Format settings, CABAC      : Yes
    Format settings, ReFrames   : 4 frames
    Codec ID                    : V_MPEG4/ISO/AVC
    Duration                    : 1 h 57 min
    Bit rate                    : 1 700 kb/s
    Width                       : 1 280 pixels
    Height                      : 690 pixels
    Display aspect ratio        : 1.85:1
    Frame rate mode             : Constant
    Frame rate                  : 23.976 (24000/1001) FPS
    Color space                 : YUV
    Chroma subsampling          : 4:2:0
    Bit depth                   : 8 bits
    Scan type                   : Progressive
    Bits/(Pixel*Frame)          : 0.080
    Stream size                 : 1.34 GiB (65%)
    Writing library             : x264 core 148 r2708 86b7198
    Encoding settings           : cabac=1 / ref=3 / deblock=1:0:0 / analyse=0x3:0x113 / me=hex / subme=7 / psy=1 / psy_rd=1.00:0.00 / mixed_ref=1 / me_range=16 / chroma_me=1 / trellis=1 / 8x8dct=1 / cqm=0 / deadzone=21,11 / fast_pskip=1 / chroma_qp_offset=-2 / threads=22 / lookahead_threads=3 / sliced_threads=0 / nr=0 / decimate=1 / interlaced=0 / bluray_compat=0 / constrained_intra=0 / bframes=3 / b_pyramid=2 / b_adapt=1 / b_bias=0 / direct=1 / weightb=1 / open_gop=0 / weightp=2 / keyint=240 / keyint_min=24 / scenecut=40 / intra_refresh=0 / rc_lookahead=40 / rc=abr / mbtree=1 / bitrate=1700 / ratetol=1.0 / qcomp=0.60 / qpmin=0 / qpmax=69 / qpstep=4 / vbv_maxrate=62500 / vbv_bufsize=78125 / nal_hrd=none / filler=0 / ip_ratio=1.40 / aq=1:1.00
    Default                     : Yes
    Forced                      : No
    Color range                 : Limited
    Color primaries             : BT.709
    Transfer characteristics    : BT.709
    Matrix coefficients         : BT.709
    Statistics Tags Issue       : mkvmerge v10.0.0 ('To Drown In You') 64bit 2017-06-20 00:35:37 / mkvmerge v10.0.0 ('To Drown In You') 64bit 2017-06-20 00:35:37 / UTC 2017-06-19T22:48:23Z
    FromStats_BitRate           : 1684175
    FromStats_Duration          : 01:57:21.994000000
    FromStats_FrameCount        : 168839
    FromStats_StreamSize        : 1482494329

    Audio #1
    ID                          : 2
    Format                      : AC-3
    Format/Info                 : Audio Coding 3
    Format settings, Endianness : Big
    Codec ID                    : A_AC3
    Duration                    : 1 h 57 min
    Bit rate mode               : Constant
    Bit rate                    : 448 kb/s
    Channel(s)                  : 6 channels
    Channel positions           : Front: L C R, Side: L R, LFE
    Sampling rate               : 48.0 kHz
    Frame rate                  : 31.250 FPS (1536 spf)
    Bit depth                   : 16 bits
    Compression mode            : Lossy
    Delay relative to video     : -5 ms
    Stream size                 : 376 MiB (18%)
    Language                    : Spanish
    Service kind                : Complete Main
    Default                     : No
    Forced                      : No
    Statistics Tags Issue       : mkvmerge v10.0.0 ('To Drown In You') 64bit 2017-06-20 00:35:37 / mkvmerge v10.0.0 ('To Drown In You') 64bit 2017-06-20 00:35:37 / UTC 2017-06-19T22:48:23Z
    FromStats_BitRate           : 448000
    FromStats_Duration          : 01:57:21.952000000
    FromStats_FrameCount        : 220061
    FromStats_StreamSize        : 394349312

    Audio #2
    ID                          : 3
    Format                      : AC-3
    Format/Info                 : Audio Coding 3
    Format settings, Endianness : Big
    Codec ID                    : A_AC3
    Duration                    : 1 h 57 min
    Bit rate mode               : Constant
    Bit rate                    : 384 kb/s
    Channel(s)                  : 6 channels
    Channel positions           : Front: L C R, Side: L R, LFE
    Sampling rate               : 48.0 kHz
    Frame rate                  : 31.250 FPS (1536 spf)
    Bit depth                   : 16 bits
    Compression mode            : Lossy
    Delay relative to video     : -5 ms
    Stream size                 : 322 MiB (15%)
    Title                       : Surround
    Language                    : English
    Service kind                : Complete Main
    Default                     : Yes
    Forced                      : No
    Statistics Tags Issue       : mkvmerge v10.0.0 ('To Drown In You') 64bit 2017-06-20 00:35:37 / mkvmerge v10.0.0 ('To Drown In You') 64bit 2017-06-20 00:35:37 / UTC 2017-06-19T22:48:23Z
    FromStats_BitRate           : 384000
    FromStats_Duration          : 01:57:22.016000000
    FromStats_FrameCount        : 220063
    FromStats_StreamSize        : 338016768

    Text #1
    ID                          : 4
    Format                      : UTF-8
    Codec ID                    : S_TEXT/UTF8
    Codec ID/Info               : UTF-8 Plain Text
    Language                    : Spanish
    Default                     : Yes
    Forced                      : No
    Statistics Tags Issue       : mkvmerge v10.0.0 ('To Drown In You') 64bit 2017-06-20 00:35:37 / mkvmerge v10.0.0 ('To Drown In You') 64bit 2017-06-20 00:35:37 / UTC 2017-06-19T22:48:23Z
    FromStats_BitRate           : 55
    FromStats_Duration          : 01:46:27.380000000
    FromStats_FrameCount        : 1285
    FromStats_StreamSize        : 44050

    Text #2
    ID                          : 5
    Format                      : UTF-8
    Codec ID                    : S_TEXT/UTF8
    Codec ID/Info               : UTF-8 Plain Text
    Language                    : English
    Default                     : No
    Forced                      : No
    Statistics Tags Issue       : mkvmerge v10.0.0 ('To Drown In You') 64bit 2017-06-20 00:35:37 / mkvmerge v10.0.0 ('To Drown In You') 64bit 2017-06-20 00:35:37 / UTC 2017-06-19T22:48:23Z
    FromStats_BitRate           : 57
    FromStats_Duration          : 01:45:58.638000000
    FromStats_FrameCount        : 1383
    FromStats_StreamSize        : 45669

    Menu
    00:00:00.000                : :00:00:00.000
    00:08:03.274                : :00:08:03.274
    00:14:26.574                : :00:14:26.574
    00:20:20.553                : :00:20:20.553
    00:27:35.237                : :00:27:35.237
    00:36:22.138                : :00:36:22.138
    00:44:13.192                : :00:44:13.192
    00:52:33.359                : :00:52:33.359
    00:57:29.821                : :00:57:29.821
    01:03:28.179                : :01:03:28.179
    01:09:31.793                : :01:09:31.751
    01:15:48.753                : :01:15:48.753
    01:22:57.306                : :01:22:57.306
    01:31:03.333                : :01:31:03.333
    01:37:39.979                : :01:37:39.979
    01:45:56.559                : :01:45:56.559

  • Peso: 2.06 GB

Sinopsis

Han pasado 20 años desde que Mark Renton abandonara Escocia, y la heroína. Ahora, Renton vuelve a su Edimburgo natal con el objetivo de rehacer su vida y reencontrarse con sus amigos de toda la vida: David “Spud” Murphy, y Simon “Sick Boy” Williamson; al mismo tiempo que Francis “Franco” Begbie sale de la prisión con sed de venganza…. Secuela de ‘Trainspotting’ (1996), basada en ‘Porno’, la siguiente novela de Irvine Welsh.

Ficha técnica

  • Titulo original: T2 Trainspotting
  • Fecha de lanzamiento: 27-01-2017 (United Kingdom)
  • Director: Danny Boyle, Sylvia Parker
  • Género: Crimen, Drama
  • Puntuación: 0.0 0 votos
  • Duración:
    1h 57m

Video trailer de la película

Enlaces de descarga

Rip de Bluray

Descargar T2 Trainspotting (2017) 720p Latino




Aportes de DPeliculasHDmega la pass es:dpeliculashdmega.org Aportes de CinemaniaHD la pass es:cinemaniahdd.com
Guardado en : Crimen , Drama

Películas relacionadas

  • Godzilla (2014) 1080p Latino

    2014
    Godzilla (2014) 1080p Latino

    0.0 2h 3m 2014

    Descargar Godzilla (2014) 1080p Latino, Mega, Google Drive, Torrent. Gareth Edwards dirige este "reboot",...

    Director: Jessica Clothier

    Género: Acción

    Actores: Yuki Morita

  • Godzilla (2014) Full 1080p Latino

    2014
    Godzilla (2014) Full 1080p Latino

    4.2 2h 3m 2014

    Descargar Godzilla (2014) Full 1080p Latino, Mega, Google Drive, Torrent. Gareth Edwards dirige este...

    Director: Jessica Clothier

    Género: Acción

    Actores: Yuki Morita

  • Un pequeño favor (2018) Full 1080p Latino

    2018
    Un pequeño favor (2018) Full 1080p Latino

    5.0 1h 57m 2018

    Descargar Un pequeño favor (2018) Full 1080p Latino, Mega, Google Drive, Torrent. Stephanie es una joven...

    Director: Paul Feig

    Género: Crimen

    Actores: Zach Smadu

Comentarios 0