×

¿Problemas para descargar con Mozilla, EDGE? Deshabilita la opción "Abrir vinculos en una pestaña nueva" tal como lo muestra ésta imagen.

Sylvie’s Love (2020) AMZN WEB-DL 1080p Latino

270 vistas

Información de Sylvie’s Love (2020) AMZN WEB-DL 1080p Latino

Datos de la película

  • Calidad:
  • Audio: Español Latino E-AC3 5.1 AMAZON - Ingles E-AC3 5.1 AMAZON
  • Subtitulos: Español Latino SRT- FORZADOS SRT
  • Resolución: 1920x1080
  • Formato: MKV
  • Codec: H.264
  • Encoder: cinemaniahdd
  • Mediainfo: Clic para Mostrar Datos Ver
  • Sylvie's Love (2020) AMZN WEB-DL 1080p Latino [CNMNHDD].mkv
    Format                      : Matroska
    Format version              : Version 4
    File size                   : 10.8 GiB
    Duration                    : 1 h 56 min
    Overall bit rate            : 13.3 Mb/s
    Movie name                  : Sylvie's Love (2020) - CinemaniaHDD.Net
    Encoded date                : UTC 2020-12-23 19:00:31
    Writing application         : mkvmerge v51.0.0 ('I Wish') 64-bit
    Writing library             : libebml v1.4.0 + libmatroska v1.6.2

    Video
    ID                          : 1
    Format                      : AVC
    Format/Info                 : Advanced Video Codec
    Format profile              : High@L4
    Format settings             : CABAC / 4 Ref Frames
    Format settings, CABAC      : Yes
    Format settings, Reference  : 4 frames
    Codec ID                    : V_MPEG4/ISO/AVC
    Duration                    : 1 h 56 min
    Bit rate                    : 10.8 Mb/s
    Width                       : 1 920 pixels
    Height                      : 1 040 pixels
    Display aspect ratio        : 1.85:1
    Frame rate mode             : Constant
    Frame rate                  : 23.976 (24000/1001) FPS
    Color space                 : YUV
    Chroma subsampling          : 4:2:0
    Bit depth                   : 8 bits
    Scan type                   : Progressive
    Bits/(Pixel*Frame)          : 0.225
    Stream size                 : 8.74 GiB (81%)
    Default                     : Yes
    Forced                      : No
    Color range                 : Limited
    Color primaries             : BT.709
    Transfer characteristics    : BT.709
    Matrix coefficients         : BT.709

    Audio #1
    ID                          : 2
    Format                      : AC-3
    Format/Info                 : Audio Coding 3
    Commercial name             : Dolby Digital
    Codec ID                    : A_AC3
    Duration                    : 1 h 56 min
    Bit rate mode               : Constant
    Bit rate                    : 640 kb/s
    Channel(s)                  : 6 channels
    Channel layout              : L R C LFE Ls Rs
    Sampling rate               : 48.0 kHz
    Frame rate                  : 31.250 FPS (1536 SPF)
    Compression mode            : Lossy
    Stream size                 : 532 MiB (5%)
    Title                       : Español latino - AC3 [CinemaniaHDD]
    Language                    : Spanish
    Service kind                : Complete Main
    Default                     : Yes
    Forced                      : No

    Audio #2
    ID                          : 3
    Format                      : E-AC-3
    Format/Info                 : Enhanced AC-3
    Commercial name             : Dolby Digital Plus
    Codec ID                    : A_EAC3
    Duration                    : 1 h 56 min
    Bit rate mode               : Constant
    Bit rate                    : 640 kb/s
    Channel(s)                  : 6 channels
    Channel layout              : L R C LFE Ls Rs
    Sampling rate               : 48.0 kHz
    Frame rate                  : 31.250 FPS (1536 SPF)
    Compression mode            : Lossy
    Stream size                 : 532 MiB (5%)
    Title                       : Español latino - E-AC3 [CinemaniaHDD]
    Language                    : Spanish
    Service kind                : Complete Main
    Default                     : No
    Forced                      : No

    Audio #3
    ID                          : 4
    Format                      : AC-3
    Format/Info                 : Audio Coding 3
    Commercial name             : Dolby Digital
    Codec ID                    : A_AC3
    Duration                    : 1 h 56 min
    Bit rate mode               : Constant
    Bit rate                    : 640 kb/s
    Channel(s)                  : 6 channels
    Channel layout              : L R C LFE Ls Rs
    Sampling rate               : 48.0 kHz
    Frame rate                  : 31.250 FPS (1536 SPF)
    Compression mode            : Lossy
    Stream size                 : 532 MiB (5%)
    Title                       : Inglés - AC3 [CinemaniaHDD]
    Language                    : English
    Service kind                : Complete Main
    Default                     : No
    Forced                      : No

    Audio #4
    ID                          : 5
    Format                      : E-AC-3
    Format/Info                 : Enhanced AC-3
    Commercial name             : Dolby Digital Plus
    Codec ID                    : A_EAC3
    Duration                    : 1 h 56 min
    Bit rate mode               : Constant
    Bit rate                    : 640 kb/s
    Channel(s)                  : 6 channels
    Channel layout              : L R C LFE Ls Rs
    Sampling rate               : 48.0 kHz
    Frame rate                  : 31.250 FPS (1536 SPF)
    Compression mode            : Lossy
    Stream size                 : 532 MiB (5%)
    Title                       : Inglés - E-AC3 [CinemaniaHDD]
    Language                    : English
    Service kind                : Complete Main
    Default                     : No
    Forced                      : No

    Text #1
    ID                          : 6
    Format                      : UTF-8
    Codec ID                    : S_TEXT/UTF8
    Codec ID/Info               : UTF-8 Plain Text
    Duration                    : 1 h 49 min
    Bit rate                    : 0 b/s
    Count of elements           : 7
    Stream size                 : 124 Bytes (0%)
    Title                       : Forzados [CinemaniaHDD]
    Language                    : Spanish
    Default                     : Yes
    Forced                      : Yes

    Text #2
    ID                          : 7
    Format                      : UTF-8
    Codec ID                    : S_TEXT/UTF8
    Codec ID/Info               : UTF-8 Plain Text
    Duration                    : 1 h 55 min
    Bit rate                    : 51 b/s
    Count of elements           : 1293
    Stream size                 : 43.3 KiB (0%)
    Title                       : Español latino [CinemaniaHDD]
    Language                    : Spanish
    Default                     : No
    Forced                      : No

    Text #3
    ID                          : 8
    Format                      : UTF-8
    Codec ID                    : S_TEXT/UTF8
    Codec ID/Info               : UTF-8 Plain Text
    Duration                    : 1 h 55 min
    Bit rate                    : 70 b/s
    Count of elements           : 2058
    Stream size                 : 59.4 KiB (0%)
    Title                       : Inglés [CinemaniaHDD]
    Language                    : English
    Default                     : No
    Forced                      : No

    Menu
    00:00:00.000                : en:Amazon Original
    00:00:21.000                : en:Studio Logo
    00:00:34.000                : en:A chance encounter
    00:02:40.000                : en:Breakfast is served
    00:03:13.000                : en:A day at the shop
    00:04:20.000                : en:Help wanted
    00:07:43.000                : en:A job opportunity
    00:09:35.000                : en:Girl talk
    00:10:33.000                : en:Herbert used to play the sax
    00:11:44.000                : en:A gig for the countess
    00:13:35.000                : en:Closing up the shop
    00:16:01.000                : en:Stuck together
    00:19:38.000                : en:Seeing Robert play
    00:23:17.000                : en:A night of dancing
    00:26:36.000                : en:A walk home
    00:29:46.000                : en:A momentary lapse in judgement
    00:32:08.000                : en:A birthday party
    00:34:49.000                : en:The opposite of ordinary
    00:37:09.000                : en:Debutante lessons
    00:37:39.000                : en:Learning when it's love
    00:40:37.000                : en:Extraordinary
    00:41:48.000                : en:Summer romance
    00:42:44.000                : en:New adventures
    00:43:11.000                : en:An offer for Paris
    00:45:06.000                : en:Unexpected news
    00:46:30.000                : en:A fond farewell
    00:48:51.000                : en:A production job
    00:50:52.000                : en:Housewife responsibilities
    00:52:16.000                : en:A day on set
    00:54:22.000                : en:Racism and double standards
    00:56:17.000                : en:A chance encounter
    00:57:55.000                : en:Reconnecting
    01:01:34.000                : en:Talking with Mona
    01:03:36.000                : en:Miles Davis
    01:04:26.000                : en:Special delivery
    01:05:14.000                : en:An impromptu vacation
    01:06:27.000                : en:Lucy makes people laugh
    01:07:22.000                : en:Picking up the car
    01:08:15.000                : en:A culmination of events
    01:10:34.000                : en:Sylvie goes home
    01:11:22.000                : en:Happy New Year
    01:12:48.000                : en:A NYE party
    01:13:08.000                : en:Owning rights
    01:14:32.000                : en:Exciting news
    01:15:39.000                : en:Betrayal
    01:16:27.000                : en:Sylvie looks for Lacy
    01:16:49.000                : en:Robert learns the truth
    01:17:00.000                : en:Letting it all sink in
    01:18:23.000                : en:Devastating news
    01:21:30.000                : en:Tension in the band
    01:23:49.000                : en:Trying to make it work
    01:30:20.000                : en:Times are changing
    01:31:43.000                : en:A call to Chico
    01:32:57.000                : en:Jazz is dead
    01:34:48.000                : en:A call to Big Tank
    01:35:11.000                : en:Letting Lucy be herself
    01:35:34.000                : en:A new job opportunity
    01:38:16.000                : en:Disappointment
    01:39:38.000                : en:Looking back
    01:40:32.000                : en:Hard truths
    01:44:46.000                : en:A lot of chance encounters
    01:48:38.000                : en:Stuck with each other
    01:50:23.000                : en:End Credits

  • Peso: 10.8 GiB

Sinopsis

Cuando una joven conoce a un aspirante a saxofonista en la tienda de discos de su padre en el Harlem de los años 50, su amor enciende un romance arrollador que trasciende los tiempos cambiantes, la geografía y el éxito profesional.

Ficha técnica

  • Titulo original: Sylvie's Love
  • Fecha de lanzamiento: 27-01-2020 (United States of America)
  • Director: Eugene Ashe
  • Género: Drama

Video trailer de la película

Enlaces de descarga

Rip de Bluray

Descargar Sylvie’s Love (2020) AMZN WEB-DL 1080p Latino




Aportes de DPeliculasHDmega la pass es:dpeliculashdmega.org Aportes de CinemaniaHD la pass es:cinemaniahdd.com
Guardado en : Drama

Películas relacionadas

descargar Sylvie’s Love (2020) AMZN WEB-DL 1080p Latino 1080p gratis, Sylvie’s Love (2020) AMZN WEB-DL 1080p Latino mega 1 link, Sylvie’s Love (2020) AMZN WEB-DL 1080p Latino pelicula completa, descargar Sylvie’s Love (2020) AMZN WEB-DL 1080p Latino gratis en mega.

Sylvie’s Love (2020) AMZN WEB-DL 1080p Latino pelicula full hd, Sylvie’s Love (2020) AMZN WEB-DL 1080p Latino mega latino, Sylvie’s Love (2020) AMZN WEB-DL 1080p Latino 4k latino, Sylvie’s Love (2020) AMZN WEB-DL 1080p Latino pelicula completa, Sylvie’s Love (2020) AMZN WEB-DL 1080p Latino descargar gratis, descargar Sylvie’s Love (2020) AMZN WEB-DL 1080p Latino pelicula latino, Sylvie’s Love (2020) AMZN WEB-DL 1080p Latino 1 link mega, Sylvie’s Love (2020) AMZN WEB-DL 1080p Latino 1 link google drive, Sylvie’s Love (2020) AMZN WEB-DL 1080p Latino hd 1080p latino.
Comentarios 0