×

¿Problemas para descargar con Mozilla, EDGE? Deshabilita la opción "Abrir vinculos en una pestaña nueva" tal como lo muestra ésta imagen.

Swordfish (2001) REMUX 1080p Latino – CMHDD

107 vistas

Información de Swordfish (2001) REMUX 1080p Latino – CMHDD

Datos de la película

  • Calidad: Full 1080p
  • Audio: Español Latino AC3 2.0 BLURAY - Ingles AC3 5.1 BLURAY
  • Subtitulos: Español Latino SRT- FORZADOS SRT
  • Resolución: 19201080p
  • Formato: MKV
  • Codec: H.264
  • Encoder: Dracarys
  • Mediainfo: Clic para Mostrar Datos Ver
  • Format                      : Matroska
    Format version              : Version 4
    File size                   : 14.5 GiB
    Duration                    : 1 h 39 min
    Overall bit rate            : 20.9 Mb/s
    Movie name                  : Swordfish (2001) REMUX 1080p Latino - CMHDD
    Encoded date                : UTC 2024-02-09 23:08:54
    Writing application         : mkvmerge v47.0.0 ('Black Flag') 64-bit
    Writing library             : libebml v1.3.10 + libmatroska v1.5.2

    Video
    ID                          : 1
    ID in the original source m : 4113 (0x1011)
    Format                      : VC-1
    Format profile              : Advanced@L3
    Codec ID                    : V_MS/VFW/FOURCC / WVC1
    Codec ID/Hint               : Microsoft
    Duration                    : 1 h 39 min
    Bit rate                    : 20.0 Mb/s
    Width                       : 1 920 pixels
    Height                      : 1 080 pixels
    Display aspect ratio        : 16:9
    Frame rate mode             : Constant
    Frame rate                  : 23.976 (24000/1001) FPS
    Color space                 : YUV
    Chroma subsampling          : 4:2:0
    Bit depth                   : 8 bits
    Scan type                   : Progressive
    Compression mode            : Lossy
    Bits/(Pixel*Frame)          : 0.403
    Stream size                 : 13.9 GiB (96%)
    Default                     : Yes
    Forced                      : No
    Original source medium      : Blu-ray

    Audio #1
    ID                          : 2
    Format                      : AC-3
    Format/Info                 : Audio Coding 3
    Commercial name             : Dolby Digital
    Format settings             : Dolby Surround
    Codec ID                    : A_AC3
    Duration                    : 1 h 39 min
    Bit rate mode               : Constant
    Bit rate                    : 192 kb/s
    Channel(s)                  : 2 channels
    Channel layout              : L R
    Sampling rate               : 48.0 kHz
    Frame rate                  : 31.250 FPS (1536 SPF)
    Compression mode            : Lossy
    Stream size                 : 136 MiB (1%)
    Language                    : Spanish
    Service kind                : Complete Main
    Default                     : Yes
    Forced                      : No

    Audio #2
    ID                          : 3
    ID in the original source m : 4352 (0x1100)
    Format                      : AC-3
    Format/Info                 : Audio Coding 3
    Commercial name             : Dolby Digital
    Codec ID                    : A_AC3
    Duration                    : 1 h 39 min
    Bit rate mode               : Constant
    Bit rate                    : 640 kb/s
    Channel(s)                  : 6 channels
    Channel layout              : L R C LFE Ls Rs
    Sampling rate               : 48.0 kHz
    Frame rate                  : 31.250 FPS (1536 SPF)
    Compression mode            : Lossy
    Stream size                 : 454 MiB (3%)
    Language                    : English
    Service kind                : Complete Main
    Default                     : No
    Forced                      : No
    Original source medium      : Blu-ray

    Text #1
    ID                          : 4
    Format                      : UTF-8
    Codec ID                    : S_TEXT/UTF8
    Codec ID/Info               : UTF-8 Plain Text
    Duration                    : 1 h 32 min
    Bit rate                    : 49 b/s
    Frame rate                  : 0.167 FPS
    Count of elements           : 928
    Stream size                 : 33.7 KiB (0%)
    Title                       : Español SRT
    Language                    : Spanish
    Default                     : No
    Forced                      : No

    Text #2
    ID                          : 5
    Format                      : PGS
    Muxing mode                 : zlib
    Codec ID                    : S_HDMV/PGS
    Codec ID/Info               : Picture based subtitle format used on BDs/HD-DVDs
    Duration                    : 1 h 38 min
    Bit rate                    : 45.0 kb/s
    Frame rate                  : 0.313 FPS
    Count of elements           : 1856
    Stream size                 : 31.8 MiB (0%)
    Title                       : Español PGS
    Language                    : Spanish
    Default                     : No
    Forced                      : No

    Menu
    00:00:00.000                : en:Chapter 01
    00:04:03.701                : en:Chapter 02
    00:08:12.033                : en:Chapter 03
    00:11:47.456                : en:Chapter 04
    00:15:07.489                : en:Chapter 05
    00:18:47.042                : en:Chapter 06
    00:21:58.275                : en:Chapter 07
    00:24:14.786                : en:Chapter 08
    00:25:50.090                : en:Chapter 09
    00:30:36.000                : en:Chapter 10
    00:34:01.289                : en:Chapter 11
    00:37:44.262                : en:Chapter 12
    00:42:11.654                : en:Chapter 13
    00:46:48.305                : en:Chapter 14
    00:49:12.824                : en:Chapter 15
    00:51:52.275                : en:Chapter 16
    00:55:27.324                : en:Chapter 17
    00:58:32.509                : en:Chapter 18
    01:03:18.544                : en:Chapter 19
    01:05:53.616                : en:Chapter 20
    01:09:19.989                : en:Chapter 21
    01:11:11.433                : en:Chapter 22
    01:15:24.895                : en:Chapter 23
    01:20:09.095                : en:Chapter 24
    01:23:15.782                : en:Chapter 25
    01:26:55.960                : en:Chapter 26
    01:29:01.336                : en:Chapter 27
    01:30:59.454                : en:Chapter 28
    01:33:29.729                : en:Chapter 29

     

  • Peso: 14.5 GiB

Sinopsis

Stanley Jobson (Hugh Jackman), un experto en informática que acaba de salir de prisión, es requerido por el terrorista Gabriel Shear (John Travolta) para que le ayude a decodificar un complicado código de seguridad de una cuenta secreta. Sólo unos pocos hackers en el mundo son capaces de realizar dicho trabajo, y él es uno de ellos. Pese a que no puede tocar un ordenador, los métodos de Shear obligarán a Jobson a ayudarle en su misión… Un thriller de acción que fue Nº1 de taquilla en USA.

Ficha técnica

Video trailer de la película

Enlaces de descarga

Rip de Bluray

Descargar Swordfish (2001) REMUX 1080p Latino – CMHDD




Aportes de DPeliculasHDmega la pass es:dpeliculashdmega.org Aportes de CinemaniaHD la pass es:cinemaniahdd.com Aportes recientes:cinemaniahdd.net
Guardado en : Acción , Crimen , Suspenso

Películas relacionadas

  • Tiburón (1975) REMUX 1080p Latino-CMHDD

    Tiburón (1975) REMUX 1080p Latino-CMHDD

    1975
    Tiburón (1975) REMUX 1080p Latino-CMHDD

    2h 4m 1975

    Descargar Tiburón (1975) REMUX 1080p Latino-CMHDD. En la costa de un pequeño pueblo del Este de Estados...

    Director: Tom Joyner

    Género: Aventura

    Actores: Ted Grossman

  • Oblivion (2013) REMUX 4K HDR Latino – CMHDD

    Oblivion (2013) REMUX 4K HDR Latino – CMHDD

    2013
    Oblivion (2013) REMUX 4K HDR Latino – CMHDD

    2 h 4 min 2013

    Jack Harper es uno de los últimos técnicos de reparación de drones que permanece en la Tierra. Parte...

    Director: Joseph Kosinski

    Género: 4K HDR

    Actores: Zoë Bell

  • El bebé de Rosemary (1968) 1080p Latino-CMHDD

    El bebé de Rosemary (1968) 1080p Latino-CMHDD

    1968
    El bebé de Rosemary (1968) 1080p Latino-CMHDD

    2h 18m 1968

    Descargar El bebé de Rosemary (1968) 1080p Latino-CMHDD. Una joven pareja, Rosemary y Guy, se muda a...

    Director: Roman Polanski

    Género: Drama

    Actores: William Castle

descargar Swordfish (2001) REMUX 1080p Latino – CMHDD Full 1080p 1080p gratis, Swordfish (2001) REMUX 1080p Latino – CMHDD Full 1080p mega 1 link, Swordfish (2001) REMUX 1080p Latino – CMHDD Full 1080p pelicula completa, descargar Swordfish (2001) REMUX 1080p Latino – CMHDD Full 1080p gratis en mega.

Swordfish (2001) REMUX 1080p Latino – CMHDD pelicula full hd, Swordfish (2001) REMUX 1080p Latino – CMHDD mega latino, Swordfish (2001) REMUX 1080p Latino – CMHDD 4k latino, Swordfish (2001) REMUX 1080p Latino – CMHDD pelicula completa, Swordfish (2001) REMUX 1080p Latino – CMHDD descargar gratis, descargar Swordfish (2001) REMUX 1080p Latino – CMHDD pelicula latino, Swordfish (2001) REMUX 1080p Latino – CMHDD 1 link mega, Swordfish (2001) REMUX 1080p Latino – CMHDD 1 link google drive, Swordfish (2001) REMUX 1080p Latino – CMHDD hd 1080p latino.
Comentarios 0