×

¿Problemas para descargar con Mozilla, EDGE? Deshabilita la opción "Abrir vinculos en una pestaña nueva" tal como lo muestra ésta imagen.

Switched for Christmas (2017) AMZN WEB-DL 1080p Latino

160 vistas

Información de Switched for Christmas (2017) AMZN WEB-DL 1080p Latino

Datos de la película

  • Calidad: 1080p
  • Audio: Español Latino AC3 2.0 WEB-DL - Ingles AC3 2.0 WEB-DL
  • Subtitulos: Español Latino SRT
  • Resolución: 1920x1080
  • Formato: MKV
  • Codec: H.264
  • Encoder: cinemaniahdd
  • Mediainfo: Clic para Mostrar Datos Ver
  • Switched for Christmas (2017) AMZN WEB-DL 1080p Latino [CNMNHDD].mkv
    Format                      : Matroska
    Format version              : Version 4
    File size                   : 6.16 GiB
    Duration                    : 1 h 26 min
    Overall bit rate            : 10.2 Mb/s
    Movie name                  : Switched for Christmas (2017) - CinemaniaHDD.Net
    Encoded date                : UTC 2021-11-01 23:20:40
    Writing application         : mkvmerge v59.0.0 ('Shining Star') 64-bit
    Writing library             : libebml v1.4.2 + libmatroska v1.6.4

    Video
    ID                          : 1
    Format                      : AVC
    Format/Info                 : Advanced Video Codec
    Format profile              : High@L4
    Format settings             : CABAC / 4 Ref Frames
    Format settings, CABAC      : Yes
    Format settings, Reference  : 4 frames
    Codec ID                    : V_MPEG4/ISO/AVC
    Duration                    : 1 h 26 min
    Bit rate mode               : Constant
    Bit rate                    : 10 000 kb/s
    Width                       : 1 920 pixels
    Height                      : 1 080 pixels
    Display aspect ratio        : 16:9
    Frame rate mode             : Constant
    Frame rate                  : 23.976 (24000/1001) FPS
    Color space                 : YUV
    Chroma subsampling          : 4:2:0
    Bit depth                   : 8 bits
    Scan type                   : Progressive
    Bits/(Pixel*Frame)          : 0.201
    Stream size                 : 5.89 GiB (96%)
    Title                       : CinemaniaHDD
    Default                     : Yes
    Forced                      : No
    Color range                 : Limited
    Color primaries             : BT.709
    Transfer characteristics    : BT.709
    Matrix coefficients         : BT.709

    Audio #1
    ID                          : 2
    Format                      : E-AC-3
    Format/Info                 : Enhanced AC-3
    Commercial name             : Dolby Digital Plus
    Codec ID                    : A_EAC3
    Duration                    : 1 h 26 min
    Bit rate mode               : Constant
    Bit rate                    : 224 kb/s
    Channel(s)                  : 2 channels
    Channel layout              : L R
    Sampling rate               : 48.0 kHz
    Frame rate                  : 31.250 FPS (1536 SPF)
    Compression mode            : Lossy
    Stream size                 : 139 MiB (2%)
    Title                       : Español latino [CinemaniaHDD]
    Language                    : Spanish
    Service kind                : Complete Main
    Default                     : Yes
    Forced                      : No

    Audio #2
    ID                          : 3
    Format                      : E-AC-3
    Format/Info                 : Enhanced AC-3
    Commercial name             : Dolby Digital Plus
    Codec ID                    : A_EAC3
    Duration                    : 1 h 26 min
    Bit rate mode               : Constant
    Bit rate                    : 224 kb/s
    Channel(s)                  : 2 channels
    Channel layout              : L R
    Sampling rate               : 48.0 kHz
    Frame rate                  : 31.250 FPS (1536 SPF)
    Compression mode            : Lossy
    Stream size                 : 139 MiB (2%)
    Title                       : Inglés [CinemaniaHDD]
    Language                    : English
    Service kind                : Complete Main
    Default                     : No
    Forced                      : No

    Text
    ID                          : 4
    Format                      : UTF-8
    Codec ID                    : S_TEXT/UTF8
    Codec ID/Info               : UTF-8 Plain Text
    Duration                    : 1 h 23 min
    Bit rate                    : 61 b/s
    Count of elements           : 1285
    Stream size                 : 37.5 KiB (0%)
    Title                       : Español latino [CinemaniaHDD]
    Language                    : Spanish
    Default                     : No
    Forced                      : No

     

  • Peso: 6.16 GiB

Sinopsis

Las gemelas idénticas Kate y Chris Lockhart planean ser la otra hermana, en la oficina de Kate y la escuela de Chris, y se encargan de planificar los eventos navideños de su hermana. Sin embargo hay una regla: nada de romances.

Ficha técnica

Video trailer de la película

Enlaces de descarga

Rip de Bluray

Descargar Switched for Christmas (2017) AMZN WEB-DL 1080p Latino




Aportes de DPeliculasHDmega la pass es:dpeliculashdmega.org Aportes de CinemaniaHD la pass es:cinemaniahdd.com
Guardado en : Drama , Película de TV

Películas relacionadas

  • Narvik (2022) NF WEB-DL 1080p Latino

    Narvik (2022) NF WEB-DL 1080p Latino

    2022
    Narvik (2022) NF WEB-DL 1080p Latino

    1h 48m 2022

    Descargar Narvik (2022) NF WEB-DL 1080p Latino. Abril de 1940. Los ojos del mundo están puestos en Narvik,...

    Director: Suzanne Svae-Johansen

    Género: Acción

    Actores: Torfinn Nag

  • Groundhog Day (1993) REMUX 4K HDR Latino – CMHDD

    Groundhog Day (1993) REMUX 4K HDR Latino – CMHDD

    1993
    Groundhog Day (1993) REMUX 4K HDR Latino – CMHDD

    1h 41m 1993

    Phil, hombre del tiempo de una cadena de televisión, es enviado un año más a Punxstawnwey, a cubrir...

    Director: Sam Hoffman

    Género: Comedia

    Actores: Willie Garson

  • A Few Good Men (1992) REMUX 4K HDR Latino – CMHDD

    A Few Good Men (1992) REMUX 4K HDR Latino – CMHDD

    1992
    A Few Good Men (1992) REMUX 4K HDR Latino – CMHDD

    2h 18m 1992

    El teniente Daniel Kaffee es un joven y prometedor abogado de la Marina que tiene una excelente reputación....

    Director: Rob Reiner

    Género: Drama

    Actores: Xander Berkeley

descargar Switched for Christmas (2017) AMZN WEB-DL 1080p Latino 1080p 1080p gratis, Switched for Christmas (2017) AMZN WEB-DL 1080p Latino 1080p mega 1 link, Switched for Christmas (2017) AMZN WEB-DL 1080p Latino 1080p pelicula completa, descargar Switched for Christmas (2017) AMZN WEB-DL 1080p Latino 1080p gratis en mega.

Switched for Christmas (2017) AMZN WEB-DL 1080p Latino pelicula full hd, Switched for Christmas (2017) AMZN WEB-DL 1080p Latino mega latino, Switched for Christmas (2017) AMZN WEB-DL 1080p Latino 4k latino, Switched for Christmas (2017) AMZN WEB-DL 1080p Latino pelicula completa, Switched for Christmas (2017) AMZN WEB-DL 1080p Latino descargar gratis, descargar Switched for Christmas (2017) AMZN WEB-DL 1080p Latino pelicula latino, Switched for Christmas (2017) AMZN WEB-DL 1080p Latino 1 link mega, Switched for Christmas (2017) AMZN WEB-DL 1080p Latino 1 link google drive, Switched for Christmas (2017) AMZN WEB-DL 1080p Latino hd 1080p latino.
Comentarios 0