×

¿Problemas para descargar con Mozilla, EDGE? Deshabilita la opción "Abrir vinculos en una pestaña nueva" tal como lo muestra ésta imagen.

Sweetbitter (2018) Primera Temporada AMZN WEB-DL 1080p Latino

76 vistas

Información de Sweetbitter (2018) Primera Temporada AMZN WEB-DL 1080p Latino

Datos de la película

  • Calidad: 1080p
  • Audio: Español Latino AC3 5.1 WEB-DL - Ingles AC3 5.1 WEB-DL
  • Subtitulos: Español Latino SRT - Ingles SRT
  • Resolución: 1920x1080
  • Formato: MKV
  • Codec: H.264
  • Encoder: cinemaniahdd
  • Mediainfo: Clic para Mostrar Datos Ver
  • Sweetbitter T01E01 AMZN WEB-DL 1080p Latino [CNMNHDD].mkv
    Format                      : Matroska
    Format version              : Version 4
    File size                   : 1.97 GiB
    Duration                    : 28 min 50 s
    Overall bit rate            : 9 782 kb/s
    Movie name                  : Sweetbitter S01E01 - Salado [1080p] - CinemaniaHDD.Net
    Encoded date                : UTC 2024-04-06 16:42:10
    Writing application         : mkvmerge v56.1.0 ('My Friend') 64-bit
    Writing library             : libebml v1.4.2 + libmatroska v1.6.4

    Video
    ID                          : 1
    Format                      : AVC
    Format/Info                 : Advanced Video Codec
    Format profile              : High@L4
    Format settings             : CABAC / 4 Ref Frames
    Format settings, CABAC      : Yes
    Format settings, Reference  : 4 frames
    Codec ID                    : V_MPEG4/ISO/AVC
    Duration                    : 28 min 50 s
    Bit rate mode               : Constant
    Bit rate                    : 7 859 kb/s
    Nominal bit rate            : 10 000 kb/s
    Width                       : 1 920 pixels
    Height                      : 1 080 pixels
    Display aspect ratio        : 16:9
    Frame rate mode             : Constant
    Frame rate                  : 23.976 (24000/1001) FPS
    Color space                 : YUV
    Chroma subsampling          : 4:2:0
    Bit depth                   : 8 bits
    Scan type                   : Progressive
    Bits/(Pixel*Frame)          : 0.158
    Stream size                 : 1.58 GiB (80%)
    Title                       : CinemaniaHDD
    Default                     : Yes
    Forced                      : No
    Color range                 : Limited
    Color primaries             : BT.709
    Transfer characteristics    : BT.709
    Matrix coefficients         : BT.709

    Audio #1
    ID                          : 2
    Format                      : AC-3
    Format/Info                 : Audio Coding 3
    Commercial name             : Dolby Digital
    Codec ID                    : A_AC3
    Duration                    : 28 min 50 s
    Bit rate mode               : Constant
    Bit rate                    : 640 kb/s
    Channel(s)                  : 6 channels
    Channel layout              : L R C LFE Ls Rs
    Sampling rate               : 48.0 kHz
    Frame rate                  : 31.250 FPS (1536 SPF)
    Compression mode            : Lossy
    Stream size                 : 132 MiB (7%)
    Title                       : Español Latino (AC3) [CinemaniaHDD]
    Language                    : Spanish
    Service kind                : Complete Main
    Default                     : Yes
    Forced                      : No

    Audio #2
    ID                          : 3
    Format                      : E-AC-3
    Format/Info                 : Enhanced AC-3
    Commercial name             : Dolby Digital Plus
    Codec ID                    : A_EAC3
    Duration                    : 28 min 50 s
    Bit rate mode               : Constant
    Bit rate                    : 640 kb/s
    Channel(s)                  : 6 channels
    Channel layout              : L R C LFE Ls Rs
    Sampling rate               : 48.0 kHz
    Frame rate                  : 31.250 FPS (1536 SPF)
    Compression mode            : Lossy
    Stream size                 : 132 MiB (7%)
    Title                       : Español latino (E-AC3) [CinemaniaHDD]
    Language                    : Spanish
    Service kind                : Complete Main
    Default                     : No
    Forced                      : No

    Audio #3
    ID                          : 4
    Format                      : E-AC-3
    Format/Info                 : Enhanced AC-3
    Commercial name             : Dolby Digital Plus
    Codec ID                    : A_EAC3
    Duration                    : 28 min 50 s
    Bit rate mode               : Constant
    Bit rate                    : 640 kb/s
    Channel(s)                  : 6 channels
    Channel layout              : L R C LFE Ls Rs
    Sampling rate               : 48.0 kHz
    Frame rate                  : 31.250 FPS (1536 SPF)
    Compression mode            : Lossy
    Stream size                 : 132 MiB (7%)
    Title                       : Inglés (Original) [CinemaniaHDD]
    Language                    : English
    Service kind                : Complete Main
    Default                     : No
    Forced                      : No

    Text #1
    ID                          : 5
    Format                      : UTF-8
    Codec ID                    : S_TEXT/UTF8
    Codec ID/Info               : UTF-8 Plain Text
    Duration                    : 27 min 14 s
    Bit rate                    : 55 b/s
    Count of elements           : 442
    Stream size                 : 11.1 KiB (0%)
    Title                       : Español Latino [CinemaniaHDD]
    Language                    : Spanish
    Default                     : No
    Forced                      : No

    Text #2
    ID                          : 6
    Format                      : UTF-8
    Codec ID                    : S_TEXT/UTF8
    Codec ID/Info               : UTF-8 Plain Text
    Duration                    : 27 min 14 s
    Bit rate                    : 59 b/s
    Count of elements           : 486
    Stream size                 : 11.9 KiB (0%)
    Title                       : Inglés [CinemaniaHDD]
    Language                    : English
    Default                     : No
    Forced                      : No

     

  • Peso: 1.97 GiB Aprox ---- 11 GiB in 6 Chapters.

Sinopsis

Tess empieza a trabajar en uno de los restaurantes más elegantes de Nueva York, pensando que sería un trabajo temporal, pero pronto se ve imbuida en el ambiente de sus colegas, la vida nocturna, y el ritmo rápido del estilo de vida de la ciudad.

Ficha técnica

Video trailer de la película

Enlaces de descarga

Rip de Bluray

Descargar Sweetbitter (2018) Primera Temporada AMZN WEB-DL 1080p Latino




Aportes de DPeliculasHDmega la pass es:dpeliculashdmega.org Aportes de CinemaniaHD la pass es:cinemaniahdd.com Aportes recientes:cinemaniahdd.net
Guardado en : Drama , Series

Películas relacionadas

  • Red de venganza (2023) HD 1080p Latino

    Red de venganza (2023) HD 1080p Latino

    2023
    Red de venganza (2023) HD 1080p Latino

    1h 25m 2023

    Descargar Red de venganza (2023) HD 1080p Latino. Analiza los problemas que surgen entre una madre (Summer...

    Director: Amy Redford

    Género: Drama

    Actores: Summer Phoenix

  • Red de venganza (2023) REMUX 1080p Latino

    Red de venganza (2023) REMUX 1080p Latino

    2023
    Red de venganza (2023) REMUX 1080p Latino

    1h 25m 2023

    Descargar Red de venganza (2023) REMUX 1080p Latino. Analiza los problemas que surgen entre una madre...

    Director: Amy Redford

    Género: Drama

    Actores: Summer Phoenix

  • Recuerdos Mortales (2024) WEB-DL 1080p Latino

    Recuerdos Mortales (2024) WEB-DL 1080p Latino

    2024
    Recuerdos Mortales (2024) WEB-DL 1080p Latino

    1h 52m 2024

    Descargar Recuerdos Mortales (2024) WEB-DL 1080p Latino. Después de someterse a un tratamiento de vanguardia...

    Director: Adam Cooper

    Género: Crimen

    Actores: Tommy Flanagan

descargar Sweetbitter (2018) Primera Temporada AMZN WEB-DL 1080p Latino 1080p 1080p gratis, Sweetbitter (2018) Primera Temporada AMZN WEB-DL 1080p Latino 1080p mega 1 link, Sweetbitter (2018) Primera Temporada AMZN WEB-DL 1080p Latino 1080p serie completa, descargar Sweetbitter (2018) Primera Temporada AMZN WEB-DL 1080p Latino 1080p gratis en mega.

Sweetbitter (2018) Primera Temporada AMZN WEB-DL 1080p Latino pelicula full hd, Sweetbitter (2018) Primera Temporada AMZN WEB-DL 1080p Latino mega latino, Sweetbitter (2018) Primera Temporada AMZN WEB-DL 1080p Latino 4k latino, Sweetbitter (2018) Primera Temporada AMZN WEB-DL 1080p Latino pelicula completa, Sweetbitter (2018) Primera Temporada AMZN WEB-DL 1080p Latino descargar gratis, descargar Sweetbitter (2018) Primera Temporada AMZN WEB-DL 1080p Latino pelicula latino, Sweetbitter (2018) Primera Temporada AMZN WEB-DL 1080p Latino 1 link mega, Sweetbitter (2018) Primera Temporada AMZN WEB-DL 1080p Latino 1 link google drive, Sweetbitter (2018) Primera Temporada AMZN WEB-DL 1080p Latino hd 1080p latino.
Comentarios 0