×

¿Problemas para descargar con Mozilla, EDGE? Deshabilita la opción "Abrir vinculos en una pestaña nueva" tal como lo muestra ésta imagen.

Sweet Disaster (2022) WEB-DL 1080p Latino

261 vistas

Información de Sweet Disaster (2022) WEB-DL 1080p Latino

Datos de la película

  • Calidad: 1080p
  • Audio: Español Latino AC3 2.0
  • Subtitulos: Español Latino SRT- FORZADOS SRT
  • Resolución: 1920x1080
  • Formato: MKV
  • Codec: H.264
  • Encoder: cinemaniahdd
  • Mediainfo: Clic para Mostrar Datos Ver
  • Sweet Disaster (2022) WEB-DL 1080p Latino [CNMNHDD].mkv
    Format                      : Matroska
    Format version              : Version 4
    File size                   : 3.75 GiB
    Duration                    : 1 h 29 min
    Overall bit rate            : 6 012 kb/s
    Movie name                  : Sweet Disaster (2022) [1080p] - CinemaniaHDD.Net
    Encoded date                : UTC 2023-04-18 02:11:08
    Writing application         : mkvmerge v56.1.0 ('My Friend') 64-bit
    Writing library             : libebml v1.4.2 + libmatroska v1.6.4

    Video
    ID                          : 1
    Format                      : AVC
    Format/Info                 : Advanced Video Codec
    Format profile              : High@L4
    Format settings             : CABAC / 2 Ref Frames
    Format settings, CABAC      : Yes
    Format settings, Reference  : 2 frames
    Codec ID                    : V_MPEG4/ISO/AVC
    Duration                    : 1 h 29 min
    Bit rate                    : 5 242 kb/s
    Width                       : 1 920 pixels
    Height                      : 1 080 pixels
    Display aspect ratio        : 16:9
    Frame rate mode             : Constant
    Frame rate                  : 25.000 FPS
    Color space                 : YUV
    Chroma subsampling          : 4:2:0
    Bit depth                   : 8 bits
    Scan type                   : Progressive
    Bits/(Pixel*Frame)          : 0.101
    Stream size                 : 3.27 GiB (87%)
    Title                       : CinemaniaHDD
    Writing library             : x264 core 155 r2901 7d0ff22
    Default                     : Yes
    Forced                      : No
    Color range                 : Limited
    Color primaries             : BT.709
    Transfer characteristics    : BT.709
    Matrix coefficients         : BT.709

    Audio #1
    ID                          : 2
    Format                      : AC-3
    Format/Info                 : Audio Coding 3
    Commercial name             : Dolby Digital
    Codec ID                    : A_AC3
    Duration                    : 1 h 29 min
    Bit rate mode               : Constant
    Bit rate                    : 384 kb/s
    Channel(s)                  : 2 channels
    Channel layout              : L R
    Sampling rate               : 48.0 kHz
    Frame rate                  : 31.250 FPS (1536 SPF)
    Compression mode            : Lossy
    Stream size                 : 245 MiB (6%)
    Title                       : Español latino [CinemaniaHDD]
    Language                    : Spanish
    Service kind                : Complete Main
    Default                     : Yes
    Forced                      : No

    Audio #2
    ID                          : 3
    Format                      : AC-3
    Format/Info                 : Audio Coding 3
    Commercial name             : Dolby Digital
    Codec ID                    : A_AC3
    Duration                    : 1 h 29 min
    Bit rate mode               : Constant
    Bit rate                    : 384 kb/s
    Channel(s)                  : 2 channels
    Channel layout              : L R
    Sampling rate               : 48.0 kHz
    Frame rate                  : 31.250 FPS (1536 SPF)
    Compression mode            : Lossy
    Stream size                 : 245 MiB (6%)
    Title                       : Aleman [CinemaniaHDD]
    Language                    : German
    Service kind                : Complete Main
    Default                     : No
    Forced                      : No

    Text #1
    ID                          : 4
    Format                      : UTF-8
    Codec ID                    : S_TEXT/UTF8
    Codec ID/Info               : UTF-8 Plain Text
    Duration                    : 1 h 17 min
    Bit rate                    : 0 b/s
    Count of elements           : 8
    Stream size                 : 214 Bytes (0%)
    Title                       : Forzados [CinemaniaHDD]
    Language                    : Spanish
    Default                     : Yes
    Forced                      : Yes

    Text #2
    ID                          : 5
    Format                      : UTF-8
    Codec ID                    : S_TEXT/UTF8
    Codec ID/Info               : UTF-8 Plain Text
    Duration                    : 1 h 24 min
    Bit rate                    : 35 b/s
    Count of elements           : 801
    Stream size                 : 21.9 KiB (0%)
    Title                       : Español
    Language                    : Spanish
    Default                     : No
    Forced                      : No

     

  • Peso: 3.75 GiB

Sinopsis

Frida es una terapeuta que utiliza recursos artísticos para tratar a sus pacientes y justo cuando su novio decide regresar con su ex, ella descubre que está embarazada. Sin lograr aceptar el final de su relación, Frida decide utilizar métodos alternativos para reconquistarlo.

Ficha técnica

  • Titulo original: Sweet Disaster
  • Fecha de lanzamiento: 18-08-2022 (Germany)
  • Director: Laura Lehmus
  • Género: Comedia, Drama

Video trailer de la película

Enlaces de descarga

Rip de Bluray

Descargar Sweet Disaster (2022) WEB-DL 1080p Latino




Aportes de DPeliculasHDmega la pass es:dpeliculashdmega.org Aportes de CinemaniaHD la pass es:cinemaniahdd.com Aportes recientes:cinemaniahdd.net
Guardado en : Comedia , Drama

Películas relacionadas

descargar Sweet Disaster (2022) WEB-DL 1080p Latino 1080p 1080p gratis, Sweet Disaster (2022) WEB-DL 1080p Latino 1080p mega 1 link, Sweet Disaster (2022) WEB-DL 1080p Latino 1080p pelicula completa, descargar Sweet Disaster (2022) WEB-DL 1080p Latino 1080p gratis en mega.

Sweet Disaster (2022) WEB-DL 1080p Latino pelicula full hd, Sweet Disaster (2022) WEB-DL 1080p Latino mega latino, Sweet Disaster (2022) WEB-DL 1080p Latino 4k latino, Sweet Disaster (2022) WEB-DL 1080p Latino pelicula completa, Sweet Disaster (2022) WEB-DL 1080p Latino descargar gratis, descargar Sweet Disaster (2022) WEB-DL 1080p Latino pelicula latino, Sweet Disaster (2022) WEB-DL 1080p Latino 1 link mega, Sweet Disaster (2022) WEB-DL 1080p Latino 1 link google drive, Sweet Disaster (2022) WEB-DL 1080p Latino hd 1080p latino.
Comentarios 0