×

¿Problemas para descargar con Mozilla, EDGE? Deshabilita la opción "Abrir vinculos en una pestaña nueva" tal como lo muestra ésta imagen.

Sweeney Todd: El barbero demoníaco de la calle Fleet (2007) REMUX 1080p Latino

539 vistas

Información de Sweeney Todd: El barbero demoníaco de la calle Fleet (2007) REMUX 1080p Latino

Datos de la película

  • Calidad: Full 1080p
  • Audio: Español Latino AC3 5.1 BLURAY - Ingles DTS 5.1 BLURAY
  • Subtitulos: Español Latino PGS - Ingles PGS
  • Resolución: 1920x1080p
  • Formato: MKV
  • Codec: H.264
  • Encoder: CinefiloCool
  • Mediainfo: Clic para Mostrar Datos Ver
  • Sweeney Todd El Barbero Demoniaco (2007) REMUX 1080p Latino.mkv
    Format                      : Matroska
    Format version              : Version 4
    File size                   : 21.8 GiB
    Duration                    : 1 h 56 min
    Overall bit rate mode       : Variable
    Overall bit rate            : 26.8 Mb/s
    Movie name                  : Sweeney Todd. The Demon Barber of Fleet Street (2007) CinemaniaHDD.Net
    Encoded date                : UTC 2022-05-23 07:57:00
    Writing application         : mkvmerge v56.1.0 ('My Friend') 64-bit
    Writing library             : libebml v1.4.2 + libmatroska v1.6.4
    Attachments                 : CINEMANIAHD.png

    Video
    ID                          : 1
    Format                      : VC-1
    Format profile              : Advanced@L3
    Codec ID                    : V_MS/VFW/FOURCC / WVC1
    Codec ID/Hint               : Microsoft
    Duration                    : 1 h 56 min
    Bit rate                    : 23.8 Mb/s
    Width                       : 1 920 pixels
    Height                      : 1 080 pixels
    Display aspect ratio        : 16:9
    Frame rate mode             : Constant
    Frame rate                  : 23.976 (24000/1001) FPS
    Color space                 : YUV
    Chroma subsampling          : 4:2:0
    Bit depth                   : 8 bits
    Scan type                   : Progressive
    Compression mode            : Lossy
    Bits/(Pixel*Frame)          : 0.479
    Stream size                 : 19.4 GiB (89%)
    Title                       : REMUX HD1080p [CinemaniaHDD]
    Language                    : English
    Default                     : Yes
    Forced                      : Yes

    Audio #1
    ID                          : 2
    Format                      : AC-3
    Format/Info                 : Audio Coding 3
    Commercial name             : Dolby Digital
    Codec ID                    : A_AC3
    Duration                    : 1 h 56 min
    Bit rate mode               : Constant
    Bit rate                    : 640 kb/s
    Channel(s)                  : 6 channels
    Channel layout              : L R C LFE Ls Rs
    Sampling rate               : 48.0 kHz
    Frame rate                  : 31.250 FPS (1536 SPF)
    Compression mode            : Lossy
    Stream size                 : 533 MiB (2%)
    Title                       : Español Latino [CinemaniaHDD]
    Language                    : Spanish
    Service kind                : Complete Main
    Default                     : Yes
    Forced                      : Yes

    Audio #2
    ID                          : 3
    Format                      : DTS XLL
    Format/Info                 : Digital Theater Systems
    Commercial name             : DTS-HD Master Audio
    Codec ID                    : A_DTS
    Duration                    : 1 h 56 min
    Bit rate mode               : Variable
    Bit rate                    : 2 287 kb/s
    Channel(s)                  : 6 channels
    Channel layout              : C L R Ls Rs LFE
    Sampling rate               : 48.0 kHz
    Frame rate                  : 93.750 FPS (512 SPF)
    Bit depth                   : 16 bits
    Compression mode            : Lossless
    Stream size                 : 1.86 GiB (9%)
    Title                       : Ingles [CinemaniaHDD]
    Language                    : English
    Default                     : No
    Forced                      : No

    Text #1
    ID                          : 4
    Format                      : PGS
    Muxing mode                 : zlib
    Codec ID                    : S_HDMV/PGS
    Codec ID/Info               : Picture based subtitle format used on BDs/HD-DVDs
    Duration                    : 1 h 52 min
    Bit rate                    : 15.5 kb/s
    Count of elements           : 1355
    Stream size                 : 12.5 MiB (0%)
    Title                       : Forzados-PGS [CinemaniaHDD]
    Language                    : Spanish
    Default                     : No
    Forced                      : No

    Text #2
    ID                          : 5
    Format                      : PGS
    Muxing mode                 : zlib
    Codec ID                    : S_HDMV/PGS
    Codec ID/Info               : Picture based subtitle format used on BDs/HD-DVDs
    Duration                    : 1 h 54 min
    Bit rate                    : 28.4 kb/s
    Count of elements           : 2567
    Stream size                 : 23.3 MiB (0%)
    Title                       : Español-PGS [CinemaniaHDD]
    Language                    : Spanish
    Default                     : No
    Forced                      : No

    Text #3
    ID                          : 6
    Format                      : PGS
    Muxing mode                 : zlib
    Codec ID                    : S_HDMV/PGS
    Codec ID/Info               : Picture based subtitle format used on BDs/HD-DVDs
    Duration                    : 1 h 52 min
    Bit rate                    : 32.7 kb/s
    Count of elements           : 2735
    Stream size                 : 26.3 MiB (0%)
    Title                       : Ingles-PGS [CinemaniaHDD]
    Language                    : English
    Default                     : No
    Forced                      : No

    Text #4
    ID                          : 7
    Format                      : UTF-8
    Codec ID                    : S_TEXT/UTF8
    Codec ID/Info               : UTF-8 Plain Text
    Duration                    : 1 h 46 min
    Bit rate                    : 26 b/s
    Count of elements           : 670
    Stream size                 : 21.0 KiB (0%)
    Title                       : Forzados-SRT [CinemaniaHDD]
    Language                    : Spanish
    Default                     : Yes
    Forced                      : Yes

    Text #5
    ID                          : 8
    Format                      : UTF-8
    Codec ID                    : S_TEXT/UTF8
    Codec ID/Info               : UTF-8 Plain Text
    Duration                    : 1 h 48 min
    Bit rate                    : 58 b/s
    Count of elements           : 1281
    Stream size                 : 46.6 KiB (0%)
    Title                       : Español-SRT [CinemaniaHDD]
    Language                    : Spanish
    Default                     : No
    Forced                      : No

    Menu
    00:00:00.000                : The Ballad Of Sweeney Todd
    00:03:27.790                : No Place Like London
    00:08:38.017                : The Worst Pies In London
    00:11:50.042                : Poor Thing
    00:16:36.662                : My Friends
    00:21:36.628                : Green Finch And Linnet Bird
    00:24:08.280                : Ah, Miss
    00:25:04.336                : Johanna
    00:30:01.800                : Pirelli's Miracle Elixir
    00:34:52.924                : The Contest
    00:39:32.370                : Anthony's Affections
    00:45:05.536                : Blackmail And Bloodshed
    00:51:14.905                : Ladies In Their Sensitivities
    00:56:10.700                : Prized Customer / Pretty Women
    01:01:41.030                : Epiphany
    01:05:13.075                : A Little Priest
    01:11:05.094                : Elopement
    01:19:07.075                : God. That's Good!
    01:21:46.234                : By The Sea
    01:28:26.801                : Not While I'm Around
    01:34:36.003                : Wigmaker
    01:42:32.813                : Pretty Women And Revenge
    01:46:10.530                : Don't I Know You
    01:51:43.863                : End Credits

  • Peso: 21.8 GiB

Sinopsis

Descargar Sweeney Todd: El barbero demoníaco de la calle Fleet (2007) REMUX 1080p Latino. Depp interpreta a Benjamin Barker, un hombre encarcelado 15 años injustamente en el otro lado del mundo, que escapa y vuelve a Londres con la promesa de vengarse, junto a Helena Bonham Carter como su obsesiva y devota cómplice, la Sra. Nellie Lovett. Adoptando el disfraz de Sweeney Todd, Barker regresa a su antigua barbería encima del local de empanadas de carne de la Sra. Lovett, y fija sus miras en el juez Turpin (Alan Rickman) que, con la ayuda de su vil secuaz Beadle Bamford (Timothy Spall), le mandaron lejos con una acusación falsa y así poder robarle a su esposa, Lucy (Laura Michelle Kelly), y a su hija bebé.

Disponible Solo Para VIP!!!

Ficha técnica

Video trailer de la película

Enlaces de descarga

Rip de Bluray

Descargar Sweeney Todd: El barbero demoníaco de la calle Fleet (2007) REMUX 1080p Latino


Aportes de DPeliculasHDmega la pass es:dpeliculashdmega.org Aportes de CinemaniaHD la pass es:cinemaniahdd.com
Guardado en : Drama , Remux , Terror

Películas relacionadas

descargar Sweeney Todd: El barbero demoníaco de la calle Fleet (2007) REMUX 1080p Latino Full 1080p 1080p gratis, Sweeney Todd: El barbero demoníaco de la calle Fleet (2007) REMUX 1080p Latino Full 1080p mega 1 link, Sweeney Todd: El barbero demoníaco de la calle Fleet (2007) REMUX 1080p Latino Full 1080p pelicula completa, descargar Sweeney Todd: El barbero demoníaco de la calle Fleet (2007) REMUX 1080p Latino Full 1080p gratis en mega.

Sweeney Todd: El barbero demoníaco de la calle Fleet (2007) REMUX 1080p Latino pelicula full hd, Sweeney Todd: El barbero demoníaco de la calle Fleet (2007) REMUX 1080p Latino mega latino, Sweeney Todd: El barbero demoníaco de la calle Fleet (2007) REMUX 1080p Latino 4k latino, Sweeney Todd: El barbero demoníaco de la calle Fleet (2007) REMUX 1080p Latino pelicula completa, Sweeney Todd: El barbero demoníaco de la calle Fleet (2007) REMUX 1080p Latino descargar gratis, descargar Sweeney Todd: El barbero demoníaco de la calle Fleet (2007) REMUX 1080p Latino pelicula latino, Sweeney Todd: El barbero demoníaco de la calle Fleet (2007) REMUX 1080p Latino 1 link mega, Sweeney Todd: El barbero demoníaco de la calle Fleet (2007) REMUX 1080p Latino 1 link google drive, Sweeney Todd: El barbero demoníaco de la calle Fleet (2007) REMUX 1080p Latino hd 1080p latino.
Comentarios 0