×

¿Problemas para descargar con Mozilla, EDGE? Deshabilita la opción "Abrir vinculos en una pestaña nueva" tal como lo muestra ésta imagen.

Suzume (2022) REMUX 1080p Latino

91 vistas

Información de Suzume (2022) REMUX 1080p Latino

Datos de la película

  • Calidad: Full 1080p
  • Audio: Se especifica abajo de la Sinopsis
  • Subtitulos: Español Latino SRT- FORZADOS SRT
  • Resolución: 1920x1080p
  • Formato: MKV
  • Codec: H.264
  • Encoder: Melkor
  • Mediainfo: Clic para Mostrar Datos Ver
  • Suzume (2022) REMUX 1080p Latino.mkv
    Format                      : Matroska
    Format version              : Version 4
    File size                   : 34.1 GiB
    Duration                    : 2 h 1 min
    Overall bit rate mode       : Variable
    Overall bit rate            : 40.2 Mb/s
    Movie name                  : Suzume (2022) CinemaniaHDD.Net
    Encoded date                : UTC 2024-04-07 03:32:17
    Writing application         : mkvmerge v56.1.0 ('My Friend') 64-bit
    Writing library             : libebml v1.4.2 + libmatroska v1.6.4
    Attachments                 : CINEMANIAHD.png
    Site                        : CinemaniaHDD.Net
    Uploader                    : Melkor

    Video
    ID                          : 1
    Format                      : AVC
    Format/Info                 : Advanced Video Codec
    Format profile              : High@L4.1
    Format settings             : CABAC / 4 Ref Frames
    Format settings, CABAC      : Yes
    Format settings, Reference  : 4 frames
    Codec ID                    : V_MPEG4/ISO/AVC
    Duration                    : 2 h 1 min
    Bit rate mode               : Variable
    Bit rate                    : 34.9 Mb/s
    Maximum bit rate            : 37.0 Mb/s
    Width                       : 1 920 pixels
    Height                      : 1 080 pixels
    Display aspect ratio        : 16:9
    Frame rate mode             : Constant
    Frame rate                  : 23.976 (24000/1001) FPS
    Color space                 : YUV
    Chroma subsampling          : 4:2:0
    Bit depth                   : 8 bits
    Scan type                   : Progressive
    Bits/(Pixel*Frame)          : 0.703
    Stream size                 : 29.6 GiB (87%)
    Title                       : REMUX HD1080p [CinemaniaHDD]
    Default                     : Yes
    Forced                      : Yes

    Audio #1
    ID                          : 2
    Format                      : AC-3
    Format/Info                 : Audio Coding 3
    Commercial name             : Dolby Digital
    Codec ID                    : A_AC3
    Duration                    : 2 h 1 min
    Bit rate mode               : Constant
    Bit rate                    : 640 kb/s
    Channel(s)                  : 6 channels
    Channel layout              : L R C LFE Ls Rs
    Sampling rate               : 48.0 kHz
    Frame rate                  : 31.250 FPS (1536 SPF)
    Compression mode            : Lossy
    Stream size                 : 556 MiB (2%)
    Title                       : Español Latino AC3 [CinemaniaHDD]
    Language                    : Spanish
    Service kind                : Complete Main
    Default                     : Yes
    Forced                      : Yes

    Audio #2
    ID                          : 3
    Format                      : E-AC-3
    Format/Info                 : Enhanced AC-3
    Commercial name             : Dolby Digital Plus
    Codec ID                    : A_EAC3
    Duration                    : 2 h 1 min
    Bit rate mode               : Constant
    Bit rate                    : 640 kb/s
    Channel(s)                  : 6 channels
    Channel layout              : L R C LFE Ls Rs
    Sampling rate               : 48.0 kHz
    Frame rate                  : 31.250 FPS (1536 SPF)
    Compression mode            : Lossy
    Stream size                 : 556 MiB (2%)
    Title                       : Español Latino EAC3 [CinemaniaHDD]
    Language                    : Spanish
    Service kind                : Complete Main
    Default                     : No
    Forced                      : No

    Audio #3
    ID                          : 4
    Format                      : DTS XLL
    Format/Info                 : Digital Theater Systems
    Commercial name             : DTS-HD Master Audio
    Codec ID                    : A_DTS
    Duration                    : 2 h 1 min
    Bit rate mode               : Variable
    Bit rate                    : 3 848 kb/s
    Channel(s)                  : 6 channels
    Channel layout              : C L R Ls Rs LFE
    Sampling rate               : 48.0 kHz
    Frame rate                  : 93.750 FPS (512 SPF)
    Bit depth                   : 24 bits
    Compression mode            : Lossless
    Stream size                 : 3.26 GiB (10%)
    Title                       : Japones [CinemaniaHDD]
    Language                    : Japanese
    Default                     : No
    Forced                      : No

    Text #1
    ID                          : 5
    Format                      : PGS
    Muxing mode                 : zlib
    Codec ID                    : S_HDMV/PGS
    Codec ID/Info               : Picture based subtitle format used on BDs/HD-DVDs
    Duration                    : 2 h 0 min
    Bit rate                    : 207 kb/s
    Count of elements           : 10600
    Stream size                 : 179 MiB (1%)
    Title                       : Japones-PGS [CinemaniaHDD]
    Language                    : Japanese
    Default                     : No
    Forced                      : No

    Text #2
    ID                          : 6
    Format                      : PGS
    Muxing mode                 : zlib
    Codec ID                    : S_HDMV/PGS
    Codec ID/Info               : Picture based subtitle format used on BDs/HD-DVDs
    Duration                    : 2 h 0 min
    Bit rate                    : 131 kb/s
    Count of elements           : 8366
    Stream size                 : 112 MiB (0%)
    Title                       : Ingles-PGS [CinemaniaHDD]
    Language                    : English
    Default                     : No
    Forced                      : No

    Text #3
    ID                          : 7
    Format                      : UTF-8
    Codec ID                    : S_TEXT/UTF8
    Codec ID/Info               : UTF-8 Plain Text
    Duration                    : 1 h 57 min
    Bit rate                    : 5 b/s
    Count of elements           : 153
    Stream size                 : 4.31 KiB (0%)
    Title                       : Forzados-SRT [CinemaniaHDD]
    Language                    : Spanish
    Default                     : Yes
    Forced                      : Yes

    Text #4
    ID                          : 8
    Format                      : UTF-8
    Codec ID                    : S_TEXT/UTF8
    Codec ID/Info               : UTF-8 Plain Text
    Duration                    : 2 h 0 min
    Bit rate                    : 45 b/s
    Count of elements           : 1318
    Stream size                 : 40.0 KiB (0%)
    Title                       : Español-SRT [CinemaniaHDD]
    Language                    : Spanish
    Default                     : No
    Forced                      : No

    Menu
    00:00:00.000                : Always Dream
    00:02:08.754                : Day 1 Encounter
    00:04:10.667                : Door of Ruins
    00:07:48.176                : Locking the Door for the First Time
    00:13:03.866                : After the Earthquake
    00:16:21.189                : Talking Cat, Running Chair
    00:19:44.683                : The People on the Boat
    00:23:24.778                : Day 2 Cat Search
    00:25:37.536                : The Back Door of a Closed School
    00:31:17.667                : Minshuku Night
    00:35:51.149                : Day 3 Crossing Strait
    00:41:12.303                : Helping
    00:45:47.620                : Amusement Park
    00:52:07.624                : Sota's Dream
    00:55:55.102                : Day 4 to Tokyo
    00:58:31.717                : Two Keystones
    01:02:25.450                : Harbinger
    01:06:13.136                : Seal
    01:12:19.794                : Day 5 Underground Castle
    01:15:20.057                : A World Without Sota
    01:19:44.613                : Looking for the Door
    01:25:13.942                : Fukushima
    01:29:00.710                : Sadaijin
    01:33:20.136                : Homecoming
    01:37:50.531                : The Last Back Door
    01:40:42.286                : Tokoyo
    01:45:38.999                : Fold
    01:49:29.646                : Sparrow's Tomorrow
    01:53:36.018                : Day 6 Welcome Back
    01:56:39.576                : End Credits

  • Peso: 34.1 GiB

Sinopsis

Descargar Suzume (2022) REMUX 1080p Latino. Suzume, una joven chica de 17 años que vive en un pueblo tranquilo en la región de Kyushu, en el suroeste de Japón. La historia comienza cuando Suzume conoce a un misterioso joven que busca una «puerta». Los dos viajan juntos y encuentran una puerta vieja en una casa abandonada en las montañas. Como si algo tirara de ella, Suzume extiende su mano hacia la puerta, lo que comienza una serie de eventos desafortunados en todo Japón.

Español Latino EAC3 & AC3 5.1 NF – Japones DTS-HD 5.1 Bluray

Ficha técnica

Video trailer de la película

Enlaces de descarga

Rip de Bluray

Descargar Suzume (2022) REMUX 1080p Latino




Aportes de DPeliculasHDmega la pass es:dpeliculashdmega.org Aportes de CinemaniaHD la pass es:cinemaniahdd.com Aportes recientes:cinemaniahdd.net
Guardado en : Animación , Aventura , Drama , Fantasía , Remux

Películas relacionadas

  • Red de venganza (2023) HD 1080p Latino

    Red de venganza (2023) HD 1080p Latino

    2023
    Red de venganza (2023) HD 1080p Latino

    1h 25m 2023

    Descargar Red de venganza (2023) HD 1080p Latino. Analiza los problemas que surgen entre una madre (Summer...

    Director: Amy Redford

    Género: Drama

    Actores: Summer Phoenix

  • Red de venganza (2023) REMUX 1080p Latino

    Red de venganza (2023) REMUX 1080p Latino

    2023
    Red de venganza (2023) REMUX 1080p Latino

    1h 25m 2023

    Descargar Red de venganza (2023) REMUX 1080p Latino. Analiza los problemas que surgen entre una madre...

    Director: Amy Redford

    Género: Drama

    Actores: Summer Phoenix

  • Recuerdos Mortales (2024) WEB-DL 1080p Latino

    Recuerdos Mortales (2024) WEB-DL 1080p Latino

    2024
    Recuerdos Mortales (2024) WEB-DL 1080p Latino

    1h 52m 2024

    Descargar Recuerdos Mortales (2024) WEB-DL 1080p Latino. Después de someterse a un tratamiento de vanguardia...

    Director: Adam Cooper

    Género: Crimen

    Actores: Tommy Flanagan

descargar Suzume (2022) REMUX 1080p Latino Full 1080p 1080p gratis, Suzume (2022) REMUX 1080p Latino Full 1080p mega 1 link, Suzume (2022) REMUX 1080p Latino Full 1080p pelicula completa, descargar Suzume (2022) REMUX 1080p Latino Full 1080p gratis en mega.

Suzume (2022) REMUX 1080p Latino pelicula full hd, Suzume (2022) REMUX 1080p Latino mega latino, Suzume (2022) REMUX 1080p Latino 4k latino, Suzume (2022) REMUX 1080p Latino pelicula completa, Suzume (2022) REMUX 1080p Latino descargar gratis, descargar Suzume (2022) REMUX 1080p Latino pelicula latino, Suzume (2022) REMUX 1080p Latino 1 link mega, Suzume (2022) REMUX 1080p Latino 1 link google drive, Suzume (2022) REMUX 1080p Latino hd 1080p latino.
Comentarios 0