×

¿Problemas para descargar con Mozilla, EDGE? Deshabilita la opción "Abrir vinculos en una pestaña nueva" tal como lo muestra ésta imagen.

Suzume (2022) REMUX 4K HDR Latino – CMHDD

137 vistas

Información de Suzume (2022) REMUX 4K HDR Latino – CMHDD

Datos de la película

  • Calidad: 4K HDR
  • Audio: Se especifica abajo de la Sinopsis
  • Subtitulos: Español Latino SRT- FORZADOS SRT
  • Resolución: 3840x2160p
  • Formato: MKV
  • Codec: H.264
  • Encoder: Dracarys
  • Mediainfo: Clic para Mostrar Datos Ver
  • Format                      : Matroska
    Format version              : Version 4
    File size                   : 28.7 GiB
    Duration                    : 2 h 1 min
    Overall bit rate mode       : Variable
    Overall bit rate            : 33.9 Mb/s
    Movie name                  : Suzume (2022) REMUX 4K HDR Latino - CMHDD
    Encoded date                : UTC 2023-11-26 01:39:45
    Writing application         : mkvmerge v47.0.0 ('Black Flag') 64-bit
    Writing library             : libebml v1.3.10 + libmatroska v1.5.2

    Video
    ID                          : 1
    Format                      : HEVC
    Format/Info                 : High Efficiency Video Coding
    Format profile              : Main 10@L5.1@High
    HDR format                  : SMPTE ST 2086, HDR10 compatible
    Codec ID                    : V_MPEGH/ISO/HEVC
    Duration                    : 2 h 1 min
    Bit rate                    : 28.4 Mb/s
    Width                       : 3 840 pixels
    Height                      : 2 160 pixels
    Display aspect ratio        : 16:9
    Frame rate mode             : Constant
    Frame rate                  : 23.976 (24000/1001) FPS
    Color space                 : YUV
    Chroma subsampling          : 4:2:0 (Type 2)
    Bit depth                   : 10 bits
    Bits/(Pixel*Frame)          : 0.143
    Stream size                 : 24.1 GiB (84%)
    Language                    : Japanese
    Default                     : Yes
    Forced                      : No
    Color range                 : Limited
    Color primaries             : BT.2020
    Transfer characteristics    : PQ
    Matrix coefficients         : BT.2020 non-constant
    Mastering display color pri : BT.2020
    Mastering display luminance : min: 0.0001 cd/m2, max: 1000 cd/m2
    Maximum Content Light Level : 996 cd/m2
    Maximum Frame-Average Light : 817 cd/m2

    Audio #1
    ID                          : 2
    Format                      : AC-3
    Format/Info                 : Audio Coding 3
    Commercial name             : Dolby Digital
    Codec ID                    : A_AC3
    Duration                    : 2 h 1 min
    Bit rate mode               : Constant
    Bit rate                    : 256 kb/s
    Channel(s)                  : 2 channels
    Channel layout              : L R
    Sampling rate               : 44.1 kHz
    Frame rate                  : 28.711 FPS (1536 SPF)
    Compression mode            : Lossy
    Stream size                 : 222 MiB (1%)
    Language                    : Spanish
    Service kind                : Complete Main
    Default                     : Yes
    Forced                      : No

    Audio #2
    ID                          : 3
    Format                      : DTS XLL
    Format/Info                 : Digital Theater Systems
    Commercial name             : DTS-HD Master Audio
    Codec ID                    : A_DTS
    Duration                    : 2 h 1 min
    Bit rate mode               : Variable
    Bit rate                    : 3 848 kb/s
    Channel(s)                  : 6 channels
    Channel layout              : C L R Ls Rs LFE
    Sampling rate               : 48.0 kHz
    Frame rate                  : 93.750 FPS (512 SPF)
    Bit depth                   : 24 bits
    Compression mode            : Lossless
    Stream size                 : 3.26 GiB (11%)
    Language                    : Japanese
    Default                     : No
    Forced                      : No

    Audio #3
    ID                          : 4
    Format                      : FLAC
    Format/Info                 : Free Lossless Audio Codec
    Codec ID                    : A_FLAC
    Duration                    : 2 h 1 min
    Bit rate mode               : Variable
    Bit rate                    : 1 339 kb/s
    Channel(s)                  : 2 channels
    Channel layout              : L R
    Sampling rate               : 48.0 kHz
    Frame rate                  : 11.719 FPS (4096 SPF)
    Bit depth                   : 24 bits
    Compression mode            : Lossless
    Stream size                 : 1.14 GiB (4%)
    Writing library             : libFLAC 1.4.3 (UTC 2023-06-23)
    Language                    : Japanese
    Default                     : No
    Forced                      : No
    MD5 of the unencoded conten : 9105095ECDCC855175876012BFFE885D

    Text #1
    ID                          : 5
    Format                      : UTF-8
    Codec ID                    : S_TEXT/UTF8
    Codec ID/Info               : UTF-8 Plain Text
    Duration                    : 1 h 56 min
    Bit rate                    : 6 b/s
    Frame rate                  : 0.021 FPS
    Count of elements           : 150
    Stream size                 : 5.96 KiB (0%)
    Title                       : F
    Language                    : Spanish
    Default                     : Yes
    Forced                      : No

    Text #2
    ID                          : 6
    Format                      : UTF-8
    Codec ID                    : S_TEXT/UTF8
    Codec ID/Info               : UTF-8 Plain Text
    Duration                    : 2 h 0 min
    Bit rate                    : 45 b/s
    Frame rate                  : 0.236 FPS
    Count of elements           : 1698
    Stream size                 : 40.4 KiB (0%)
    Language                    : Spanish
    Default                     : No
    Forced                      : No

    Menu
    00:00:00.000                : en:Chapter 01
    00:02:08.754                : en:Chapter 02
    00:04:10.667                : en:Chapter 03
    00:07:48.176                : en:Chapter 04
    00:13:03.866                : en:Chapter 05
    00:16:21.189                : en:Chapter 06
    00:19:44.683                : en:Chapter 07
    00:23:24.778                : en:Chapter 08
    00:25:36.952                : en:Chapter 09
    00:31:17.667                : en:Chapter 10
    00:35:51.149                : en:Chapter 11
    00:41:12.303                : en:Chapter 12
    00:45:47.620                : en:Chapter 13
    00:52:07.624                : en:Chapter 14
    00:55:55.102                : en:Chapter 15
    00:58:31.717                : en:Chapter 16
    01:02:25.450                : en:Chapter 17
    01:06:13.136                : en:Chapter 18
    01:12:19.794                : en:Chapter 19
    01:15:20.057                : en:Chapter 20
    01:19:44.613                : en:Chapter 21
    01:25:13.942                : en:Chapter 22
    01:29:00.585                : en:Chapter 23
    01:33:20.136                : en:Chapter 24
    01:37:50.531                : en:Chapter 25
    01:40:42.286                : en:Chapter 26
    01:45:38.999                : en:Chapter 27
    01:49:29.646                : en:Chapter 28
    01:53:36.018                : en:Chapter 29
    01:56:34.237                : en:Chapter 30

     

  • Peso: 28.7 GiB

Sinopsis

Suzume, una joven chica de 17 años que vive en un pueblo tranquilo en la región de Kyushu, en el suroeste de Japón. La historia comienza cuando Suzume conoce a un misterioso joven que busca una «puerta». Los dos viajan juntos y encuentran una puerta vieja en una casa abandonada en las montañas. Como si algo tirara de ella, Suzume extiende su mano hacia la puerta, lo que comienza una serie de eventos desafortunados en todo Japón.

 

Latino: AC3 2.0  –  Japones: DTS 5.1

Ficha técnica

Video trailer de la película

Enlaces de descarga

Rip de Bluray

Descargar Suzume (2022) REMUX 4K HDR Latino – CMHDD




Aportes de DPeliculasHDmega la pass es:dpeliculashdmega.org Aportes de CinemaniaHD la pass es:cinemaniahdd.com Aportes recientes:cinemaniahdd.net
Guardado en : Animación , Aventura , Drama , Fantasía

Películas relacionadas

descargar Suzume (2022) REMUX 4K HDR Latino – CMHDD 4K HDR 1080p gratis, Suzume (2022) REMUX 4K HDR Latino – CMHDD 4K HDR mega 1 link, Suzume (2022) REMUX 4K HDR Latino – CMHDD 4K HDR pelicula completa, descargar Suzume (2022) REMUX 4K HDR Latino – CMHDD 4K HDR gratis en mega.

Suzume (2022) REMUX 4K HDR Latino – CMHDD pelicula full hd, Suzume (2022) REMUX 4K HDR Latino – CMHDD mega latino, Suzume (2022) REMUX 4K HDR Latino – CMHDD 4k latino, Suzume (2022) REMUX 4K HDR Latino – CMHDD pelicula completa, Suzume (2022) REMUX 4K HDR Latino – CMHDD descargar gratis, descargar Suzume (2022) REMUX 4K HDR Latino – CMHDD pelicula latino, Suzume (2022) REMUX 4K HDR Latino – CMHDD 1 link mega, Suzume (2022) REMUX 4K HDR Latino – CMHDD 1 link google drive, Suzume (2022) REMUX 4K HDR Latino – CMHDD hd 1080p latino.
Comentarios 0