×

¿Problemas para descargar con Mozilla, EDGE? Deshabilita la opción "Abrir vinculos en una pestaña nueva" tal como lo muestra ésta imagen.

SurrealEstate (2023) Temporada 2 WEB-DL 1080p Latino

116 vistas

Información de SurrealEstate (2023) Temporada 2 WEB-DL 1080p Latino

Datos de la película

  • Calidad:
  • Audio: Español Latino AC3 2.0 WEB-DL - Ingles AC3 2.0 WEB-DL
  • Subtitulos: Español Latino SRT- FORZADOS SRT
  • Resolución: 1920x1080
  • Formato: MKV
  • Codec: H.264
  • Encoder: cinemaniahdd
  • Mediainfo: Clic para Mostrar Datos Ver
  • SurrealEstate T02E01 WEB-DL 1080p Latino [CNMNHDD].mkv
    Format                      : Matroska
    Format version              : Version 4
    File size                   : 1.56 GiB
    Duration                    : 41 min 42 s
    Overall bit rate            : 5 346 kb/s
    Movie name                  : SurrealEstate S02E01 - Trust the Process [1080p] - CinemaniaHDD.Net
    Encoded date                : UTC 2023-10-16 23:57:45
    Writing application         : mkvmerge v56.1.0 ('My Friend') 64-bit
    Writing library             : libebml v1.4.2 + libmatroska v1.6.4

    Video
    ID                          : 1
    Format                      : AVC
    Format/Info                 : Advanced Video Codec
    Format profile              : High@L4
    Format settings             : CABAC / 4 Ref Frames
    Format settings, CABAC      : Yes
    Format settings, Reference  : 4 frames
    Codec ID                    : V_MPEG4/ISO/AVC
    Duration                    : 41 min 42 s
    Bit rate                    : 4 576 kb/s
    Width                       : 1 920 pixels
    Height                      : 1 080 pixels
    Display aspect ratio        : 16:9
    Frame rate mode             : Constant
    Frame rate                  : 23.976 (24000/1001) FPS
    Color space                 : YUV
    Chroma subsampling          : 4:2:0
    Bit depth                   : 8 bits
    Scan type                   : Progressive
    Bits/(Pixel*Frame)          : 0.092
    Stream size                 : 1.33 GiB (86%)
    Title                       : CinemaniaHDD
    Default                     : Yes
    Forced                      : No

    Audio #1
    ID                          : 2
    Format                      : AC-3
    Format/Info                 : Audio Coding 3
    Commercial name             : Dolby Digital
    Codec ID                    : A_AC3
    Duration                    : 41 min 42 s
    Bit rate mode               : Constant
    Bit rate                    : 384 kb/s
    Channel(s)                  : 2 channels
    Channel layout              : L R
    Sampling rate               : 48.0 kHz
    Frame rate                  : 31.250 FPS (1536 SPF)
    Compression mode            : Lossy
    Stream size                 : 115 MiB (7%)
    Title                       : Español Latino [CinemaniaHDD]
    Language                    : Spanish
    Service kind                : Complete Main
    Default                     : Yes
    Forced                      : Yes

    Audio #2
    ID                          : 3
    Format                      : AC-3
    Format/Info                 : Audio Coding 3
    Commercial name             : Dolby Digital
    Codec ID                    : A_AC3
    Duration                    : 41 min 42 s
    Bit rate mode               : Constant
    Bit rate                    : 384 kb/s
    Channel(s)                  : 2 channels
    Channel layout              : L R
    Sampling rate               : 48.0 kHz
    Frame rate                  : 31.250 FPS (1536 SPF)
    Compression mode            : Lossy
    Stream size                 : 115 MiB (7%)
    Title                       : Inglés [CinemaniaHDD]
    Language                    : English
    Service kind                : Complete Main
    Default                     : No
    Forced                      : No

    Text #1
    ID                          : 4
    Format                      : UTF-8
    Codec ID                    : S_TEXT/UTF8
    Codec ID/Info               : UTF-8 Plain Text
    Duration                    : 39 min 25 s
    Bit rate                    : 0 b/s
    Count of elements           : 9
    Stream size                 : 227 Bytes (0%)
    Title                       : Forzados [CinemaniaHDD]
    Language                    : Spanish
    Default                     : Yes
    Forced                      : Yes

    Text #2
    ID                          : 5
    Format                      : UTF-8
    Codec ID                    : S_TEXT/UTF8
    Codec ID/Info               : UTF-8 Plain Text
    Duration                    : 41 min 3 s
    Bit rate                    : 62 b/s
    Count of elements           : 646
    Stream size                 : 18.8 KiB (0%)
    Title                       : Español Latino [CinemaniaHDD]
    Language                    : Spanish
    Default                     : No
    Forced                      : No

    Text #3
    ID                          : 6
    Format                      : UTF-8
    Codec ID                    : S_TEXT/UTF8
    Codec ID/Info               : UTF-8 Plain Text
    Duration                    : 41 min 4 s
    Bit rate                    : 72 b/s
    Count of elements           : 738
    Stream size                 : 21.8 KiB (0%)
    Title                       : Inglés [CinemaniaHDD]
    Language                    : English
    Default                     : No
    Forced                      : No

     

  • Peso: 1.56 GiB C/U --- 7 CAPÍTULOS DISPONIBLES

Sinopsis

Un equipo de especialistas en bienes inmobiliarios investigan, descubren y resuelven problemas poco convencionales que dificultan la venta de ciertas propiedades. Se refieren a estas propiedades como ‘comprometidas metafísicamente’. Es decir, casas encantadas o poseídas. Lo que hace que el equipo de The Roman Agency sea único, y solicitado, es su asombrosa habilidad para investigar y explicar lo verdaderamente inexplicable y encontrar una solución que ayude al cierre de la venta de la propiedad. Esa es la clave. Resolver el misterio, cerrar el portal, expulsar al demonio, poner en reposo el alma torturada, son todos los medios para un fin mayor: una venta.

7 CAPÍTULOS DISPONIBLES

Ficha técnica

Video trailer de la película

Enlaces de descarga

Rip de Bluray

Descargar SurrealEstate (2023) Temporada 2 WEB-DL 1080p Latino




Aportes de DPeliculasHDmega la pass es:dpeliculashdmega.org Aportes de CinemaniaHD la pass es:cinemaniahdd.com Aportes recientes:cinemaniahdd.net
Guardado en : Drama , Misterio , Sci-Fi & Fantasy , Series

Películas relacionadas

descargar SurrealEstate (2023) Temporada 2 WEB-DL 1080p Latino 1080p gratis, SurrealEstate (2023) Temporada 2 WEB-DL 1080p Latino mega 1 link, SurrealEstate (2023) Temporada 2 WEB-DL 1080p Latino serie completa, descargar SurrealEstate (2023) Temporada 2 WEB-DL 1080p Latino gratis en mega.

SurrealEstate (2023) Temporada 2 WEB-DL 1080p Latino pelicula full hd, SurrealEstate (2023) Temporada 2 WEB-DL 1080p Latino mega latino, SurrealEstate (2023) Temporada 2 WEB-DL 1080p Latino 4k latino, SurrealEstate (2023) Temporada 2 WEB-DL 1080p Latino pelicula completa, SurrealEstate (2023) Temporada 2 WEB-DL 1080p Latino descargar gratis, descargar SurrealEstate (2023) Temporada 2 WEB-DL 1080p Latino pelicula latino, SurrealEstate (2023) Temporada 2 WEB-DL 1080p Latino 1 link mega, SurrealEstate (2023) Temporada 2 WEB-DL 1080p Latino 1 link google drive, SurrealEstate (2023) Temporada 2 WEB-DL 1080p Latino hd 1080p latino.
Comentarios 0