×

¿Problemas para descargar con Mozilla, EDGE? Deshabilita la opción "Abrir vinculos en una pestaña nueva" tal como lo muestra ésta imagen.

SurrealEstate (2021) Primera Temporada WEB-DL 1080p Latino

4.359 vistas

Información de SurrealEstate (2021) Primera Temporada WEB-DL 1080p Latino

Datos de la película

  • Calidad: 1080p
  • Audio: Español Latino AC3 2.0 WEB-DL - Ingles AC3 2.0 WEB-DL
  • Subtitulos: Español Latino SRT- FORZADOS SRT
  • Resolución: 1920x1080
  • Formato: MKV
  • Codec: H.264
  • Encoder: cinemaniahdd
  • Mediainfo: Clic para Mostrar Datos Ver
  • SurrealEstate T01E07 WEB-DL 1080p Latino [CNMNHD].mkv
    Format                      : Matroska
    Format version              : Version 4
    File size                   : 2.20 GiB
    Duration                    : 42 min 54 s
    Overall bit rate            : 7 352 kb/s
    Movie name                  : SurrealEstate S01E07 - Quarantine [1080p] - CinemaniaHDD.Net
    Encoded date                : UTC 2022-07-06 17:18:01
    Writing application         : mkvmerge v56.1.0 ('My Friend') 64-bit
    Writing library             : libebml v1.4.2 + libmatroska v1.6.4

    Video
    ID                          : 1
    Format                      : AVC
    Format/Info                 : Advanced Video Codec
    Format profile              : High@L4
    Format settings             : CABAC / 4 Ref Frames
    Format settings, CABAC      : Yes
    Format settings, Reference  : 4 frames
    Codec ID                    : V_MPEG4/ISO/AVC
    Duration                    : 42 min 54 s
    Bit rate                    : 6 582 kb/s
    Width                       : 1 920 pixels
    Height                      : 1 080 pixels
    Display aspect ratio        : 16:9
    Frame rate mode             : Constant
    Frame rate                  : 23.976 (24000/1001) FPS
    Color space                 : YUV
    Chroma subsampling          : 4:2:0
    Bit depth                   : 8 bits
    Scan type                   : Progressive
    Bits/(Pixel*Frame)          : 0.132
    Stream size                 : 1.97 GiB (90%)
    Title                       : CinemaniaHDD
    Default                     : Yes
    Forced                      : No
    Color range                 : Limited
    Color primaries             : BT.709
    Transfer characteristics    : BT.709
    Matrix coefficients         : BT.709

    Audio #1
    ID                          : 2
    Format                      : AC-3
    Format/Info                 : Audio Coding 3
    Commercial name             : Dolby Digital
    Codec ID                    : A_AC3
    Duration                    : 42 min 54 s
    Bit rate mode               : Constant
    Bit rate                    : 384 kb/s
    Channel(s)                  : 2 channels
    Channel layout              : L R
    Sampling rate               : 48.0 kHz
    Frame rate                  : 31.250 FPS (1536 SPF)
    Compression mode            : Lossy
    Stream size                 : 118 MiB (5%)
    Title                       : Español latino [CinemaniaHDD]
    Language                    : Spanish
    Service kind                : Complete Main
    Default                     : Yes
    Forced                      : No

    Audio #2
    ID                          : 3
    Format                      : AC-3
    Format/Info                 : Audio Coding 3
    Commercial name             : Dolby Digital
    Codec ID                    : A_AC3
    Duration                    : 42 min 54 s
    Bit rate mode               : Constant
    Bit rate                    : 384 kb/s
    Channel(s)                  : 2 channels
    Channel layout              : L R
    Sampling rate               : 48.0 kHz
    Frame rate                  : 31.250 FPS (1536 SPF)
    Compression mode            : Lossy
    Stream size                 : 118 MiB (5%)
    Title                       : Inglés [CinemaniaHDD]
    Language                    : English
    Service kind                : Complete Main
    Default                     : No
    Forced                      : No

    Text #1
    ID                          : 4
    Format                      : UTF-8
    Codec ID                    : S_TEXT/UTF8
    Codec ID/Info               : UTF-8 Plain Text
    Duration                    : 19 s 853 ms
    Bit rate                    : 92 b/s
    Count of elements           : 6
    Stream size                 : 229 Bytes (0%)
    Title                       : Forzados [CinemaniaHDD]
    Language                    : Spanish
    Default                     : Yes
    Forced                      : Yes

    Text #2
    ID                          : 5
    Format                      : UTF-8
    Codec ID                    : S_TEXT/UTF8
    Codec ID/Info               : UTF-8 Plain Text
    Duration                    : 41 min 40 s
    Bit rate                    : 70 b/s
    Count of elements           : 644
    Stream size                 : 21.6 KiB (0%)
    Title                       : Español latino [CinemaniaHDD]
    Language                    : Spanish
    Default                     : No
    Forced                      : No

     

  • Peso: 2.20 GiB Aprox ---- 22 GiB in 10 Chapters.

Sinopsis

Un equipo de especialistas en bienes inmobiliarios investigan, descubren y resuelven problemas poco convencionales que dificultan la venta de ciertas propiedades. Se refieren a estas propiedades como ‘comprometidas metafísicamente’. Es decir, casas encantadas o poseídas. Lo que hace que el equipo de The Roman Agency sea único, y solicitado, es su asombrosa habilidad para investigar y explicar lo verdaderamente inexplicable y encontrar una solución que ayude al cierre de la venta de la propiedad. Esa es la clave. Resolver el misterio, cerrar el portal, expulsar al demonio, poner en reposo el alma torturada, son todos los medios para un fin mayor: una venta.

Ficha técnica

Video trailer de la película

Enlaces de descarga

Rip de Bluray

Descargar SurrealEstate (2021) Primera Temporada WEB-DL 1080p Latino




Aportes de DPeliculasHDmega la pass es:dpeliculashdmega.org Aportes de CinemaniaHD la pass es:cinemaniahdd.com
Guardado en : Drama , Misterio , Sci-Fi & Fantasy , Series

Películas relacionadas

  • Emily la criminal (2022) HD 1080p Latino

    Emily la criminal (2022) HD 1080p Latino

    2022
    Emily la criminal (2022) HD 1080p Latino

    1h 37m 2022

    Descargar Emily la criminal (2022) HD 1080p Latino. Emily, que tiene una deuda estudiantil y está excluida...

    Director: John Patton Ford

    Género: Crimen

    Actores: Theo Rossi

  • Emily la criminal (2022) REMUX 1080p Latino

    Emily la criminal (2022) REMUX 1080p Latino

    2022
    Emily la criminal (2022) REMUX 1080p Latino

    1h 37m 2022

    Descargar Emily la criminal (2022) REMUX 1080p Latino. Emily, que tiene una deuda estudiantil y está...

    Director: John Patton Ford

    Género: Crimen

    Actores: Theo Rossi

  • Território Hostil (2022) HD 1080p Latino

    Território Hostil (2022) HD 1080p Latino

    2022
    Território Hostil (2022) HD 1080p Latino

    1h 34m 2022

    Descargar Território Hostil (2022) HD 1080p Latino. En los Estados Unidos posteriores a la guerra civil,...

    Director: Brian Presley

    Género: Drama

    Actores: Natalie Whittle

descargar SurrealEstate (2021) Primera Temporada WEB-DL 1080p Latino 1080p 1080p gratis, SurrealEstate (2021) Primera Temporada WEB-DL 1080p Latino 1080p mega 1 link, SurrealEstate (2021) Primera Temporada WEB-DL 1080p Latino 1080p serie completa, descargar SurrealEstate (2021) Primera Temporada WEB-DL 1080p Latino 1080p gratis en mega.

SurrealEstate (2021) Primera Temporada WEB-DL 1080p Latino pelicula full hd, SurrealEstate (2021) Primera Temporada WEB-DL 1080p Latino mega latino, SurrealEstate (2021) Primera Temporada WEB-DL 1080p Latino 4k latino, SurrealEstate (2021) Primera Temporada WEB-DL 1080p Latino pelicula completa, SurrealEstate (2021) Primera Temporada WEB-DL 1080p Latino descargar gratis, descargar SurrealEstate (2021) Primera Temporada WEB-DL 1080p Latino pelicula latino, SurrealEstate (2021) Primera Temporada WEB-DL 1080p Latino 1 link mega, SurrealEstate (2021) Primera Temporada WEB-DL 1080p Latino 1 link google drive, SurrealEstate (2021) Primera Temporada WEB-DL 1080p Latino hd 1080p latino.
Comentarios 0