Surf’s Up- reyes de las olas (2007) HD 1080p Latino – CMHDD

17 vistas
1 estrella2 estrellas3 estrellas4 estrellas5 estrellas (Ninguna valoración todavía)
Cargando…

Información de Surf’s Up- reyes de las olas (2007) HD 1080p Latino – CMHDD

Datos de la película

  • Calidad: 1080p
  • Audio: Español Latino AC3 5.1 BLURAY - Ingles AC3 5.1 BLURAY
  • Subtitulos: Español Latino SRT- FORZADOS SRT
  • Resolución: 1920x1040p
  • Formato: MKV
  • Codec: H.264
  • Encoder: Dracarys
  • Mediainfo: Clic para Mostrar Datos Ver
  • Format                      : Matroska
    Format version              : Version 4
    File size                   : 2.70 GiB
    Duration                    : 1 h 25 min
    Overall bit rate            : 4 521 kb/s
    Movie name                  : Surf's Up: reyes de las olas (2007) HD 1080p Latino - CMHDD
    Encoded date                : UTC 2020-06-22 20:28:40
    Writing application         : mkvmerge v46.0.0 ('No Deeper Escape') 64-bit
    Writing library             : libebml v1.3.10 + libmatroska v1.5.2

    Video
    ID                          : 1
    Format                      : AVC
    Format/Info                 : Advanced Video Codec
    Format profile              : High@L4.1
    Format settings             : CABAC / 4 Ref Frames
    Format settings, CABAC      : Yes
    Format settings, Reference  : 4 frames
    Codec ID                    : V_MPEG4/ISO/AVC
    Duration                    : 1 h 25 min
    Bit rate                    : 3 239 kb/s
    Nominal bit rate            : 3 500 kb/s
    Width                       : 1 920 pixels
    Height                      : 1 040 pixels
    Display aspect ratio        : 1.85:1
    Frame rate mode             : Constant
    Frame rate                  : 23.976 (24000/1001) FPS
    Color space                 : YUV
    Chroma subsampling          : 4:2:0
    Bit depth                   : 8 bits
    Scan type                   : Progressive
    Bits/(Pixel*Frame)          : 0.068
    Stream size                 : 1.93 GiB (72%)
    Writing library             : x264 core 157 r2935 545de2f
    Encoding settings           : cabac=1 / ref=4 / deblock=1:0:0 / analyse=0x3:0x113 / me=hex / subme=8 / psy=1 / psy_rd=1.00:0.00 / mixed_ref=1 / me_range=16 / chroma_me=1 / trellis=2 / 8x8dct=1 / cqm=0 / deadzone=21,11 / fast_pskip=1 / chroma_qp_offset=-2 / threads=24 / lookahead_threads=4 / sliced_threads=0 / nr=0 / decimate=1 / interlaced=0 / bluray_compat=0 / constrained_intra=0 / bframes=3 / b_pyramid=2 / b_adapt=1 / b_bias=0 / direct=3 / weightb=1 / open_gop=0 / weightp=2 / keyint=240 / keyint_min=24 / scenecut=40 / intra_refresh=0 / rc_lookahead=50 / rc=abr / mbtree=1 / bitrate=3500 / ratetol=1.0 / qcomp=0.60 / qpmin=0 / qpmax=69 / qpstep=4 / vbv_maxrate=62500 / vbv_bufsize=78125 / nal_hrd=none / filler=0 / ip_ratio=1.40 / aq=1:1.00
    Default                     : Yes
    Forced                      : No
    Color range                 : Limited
    Color primaries             : BT.709
    Transfer characteristics    : BT.709
    Matrix coefficients         : BT.709

    Audio #1
    ID                          : 2
    Format                      : AC-3
    Format/Info                 : Audio Coding 3
    Commercial name             : Dolby Digital
    Codec ID                    : A_AC3
    Duration                    : 1 h 25 min
    Bit rate mode               : Constant
    Bit rate                    : 640 kb/s
    Channel(s)                  : 6 channels
    Channel layout              : L R C LFE Ls Rs
    Sampling rate               : 48.0 kHz
    Frame rate                  : 31.250 FPS (1536 SPF)
    Compression mode            : Lossy
    Stream size                 : 391 MiB (14%)
    Language                    : Spanish
    Service kind                : Complete Main
    Default                     : Yes
    Forced                      : No

    Audio #2
    ID                          : 3
    Format                      : AC-3
    Format/Info                 : Audio Coding 3
    Commercial name             : Dolby Digital
    Codec ID                    : A_AC3
    Duration                    : 1 h 25 min
    Bit rate mode               : Constant
    Bit rate                    : 640 kb/s
    Channel(s)                  : 6 channels
    Channel layout              : L R C LFE Ls Rs
    Sampling rate               : 48.0 kHz
    Frame rate                  : 31.250 FPS (1536 SPF)
    Compression mode            : Lossy
    Stream size                 : 391 MiB (14%)
    Language                    : English
    Service kind                : Complete Main
    Default                     : No
    Forced                      : No

    Text #1
    ID                          : 4
    Format                      : UTF-8
    Codec ID                    : S_TEXT/UTF8
    Codec ID/Info               : UTF-8 Plain Text
    Duration                    : 1 min 44 s
    Bit rate                    : 2 b/s
    Count of elements           : 2
    Stream size                 : 36.0 Bytes (0%)
    Title                       : Forzados
    Language                    : Spanish
    Default                     : Yes
    Forced                      : Yes

    Text #2
    ID                          : 5
    Format                      : UTF-8
    Codec ID                    : S_TEXT/UTF8
    Codec ID/Info               : UTF-8 Plain Text
    Duration                    : 1 h 14 min
    Bit rate                    : 41 b/s
    Count of elements           : 577
    Stream size                 : 22.6 KiB (0%)
    Language                    : Spanish
    Default                     : No
    Forced                      : No

    Menu
    00:00:00.000                : :Chapter 1
    00:06:08.243                : :Chapter 2
    00:12:08.603                : :Chapter 3
    00:17:42.562                : :Chapter 4
    00:23:05.885                : :Chapter 5
    00:27:53.005                : :Chapter 6
    00:33:00.937                : :Chapter 7
    00:38:14.501                : :Chapter 8
    00:44:13.484                : :Chapter 9
    00:46:43.467                : :Chapter 10
    00:51:39.597                : :Chapter 11
    00:55:47.052                : :Chapter 12
    01:02:08.725                : :Chapter 13
    01:07:55.029                : :Chapter 14
    01:12:11.077                : :Chapter 15
    01:16:24.705                : :Chapter 16

  • Peso: 2.70 GiB

Sinopsis

Los pingüinos, que como todo el mundo sabe inventaron el surf, se enfrentan en una arriesgada y espectacular competición: la «Copa Mundial de Surf de Pingüinos». El adolescente pingüino Rockhopper, Cody Maverick, es un surfero en ciernes que se introduce en su primera competición profesional. Seguido por un equipo de cámara para documentar sus experiencias, Cody deja su familia y su hogar en Shiverpool, la Antártida, para viajar a la isla de Pen Gu para el Campeonato de Surf en Memoria de Big Z. En el camino, Cody conoce al surfero de Sheboygan, Chicken Joe, al famoso promotor de surf Reggie Belafonte, el cazatalentos de surf Mikey Abromowitz, y la enérgica vigilante Lani Aliikai, que reconocen la pasión de Cody por el surf, aunque en ocasiones esté un poco mal encauzado. Cody cree que esa voluntad para ganar le dará la admiración y el respeto que desea, pero cuando inesperadamente se enfrenta con un viejo surfero acabado, Cody empieza a encontrar su propio camino…

Ficha técnica

Video trailer de la película

Enlaces de descarga

Rip de Bluray

Descargar Surf’s Up- reyes de las olas (2007) HD 1080p Latino – CMHDD




Aportes de DPeliculasHDmega la pass es:dpeliculashdmega.org Aportes de CinemaniaHD la pass es:cinemaniahdd.com
Guardado en : Animación , Comedia , Familia , HD 1080p

Películas relacionadas

  • Días De Trueno (1990) 1080p Latino

    Días De Trueno (1990) 1080p Latino

    1990
    Días De Trueno (1990) 1080p Latino

    0.0 1h 47m 1990

    Descargar Días De Trueno (1990) 1080p Latino. Cole Trickle es un joven temerario que busca en la emoción...

    Director: Tony Scott

    Género: Acción

    Actores: Tom Cruise

  • Trolls (2016) 4K UHD HDR Latino

    Trolls (2016) 4K UHD HDR Latino

    2016
    Trolls (2016) 4K UHD HDR Latino

    0.0 1h 35m 2016

    Descargar Trolls (2016) 4K UHD HDR Latino. Adorable y amable, a los trolls les encanta jugar. Pero un...

    Director: Walt Dohrn

    Género: 4K HDR

    Actores: Zooey Deschanel

  • Trolls (2016) 1080p Latino

    Trolls (2016) 1080p Latino

    2016
    Trolls (2016) 1080p Latino

    4.2 0h 0m 2016

    Descargar Trolls (2016) 1080p Latino. Adorable y amable, a los trolls les encanta jugar. Pero un día,...

    Director: Walt Dohrn

    Género: Animación

    Actores: Zooey Deschanel

  • Trolls (2016) Full HD 1080p Latino

    Trolls (2016) Full HD 1080p Latino

    2016
    Trolls (2016) Full HD 1080p Latino

    4.5 1h 35m 2016

    Descargar Trolls (2016) Full HD 1080p Latino. Adorable y amable, a los trolls les encanta jugar. Pero...

    Director: Walt Dohrn

    Género: Animación

    Actores: Zooey Deschanel

  • Trolls (2016) REMUX 1080p Latino

    Trolls (2016) REMUX 1080p Latino

    2016
    Trolls (2016) REMUX 1080p Latino

    5.0 1h 35m 2016

    Descargar Trolls (2016) REMUX 1080p Latino. Adorable y amable, a los trolls les encanta jugar. Pero un...

    Director: Walt Dohrn

    Género: Animación

    Actores: Zooey Deschanel

Comentarios 2
  • eduardo - 29 junio, 2020

    no aparecen los links…

    • Dracarys - 29 junio, 2020

      imposible