×

¿Problemas para descargar con Mozilla, EDGE? Deshabilita la opción "Abrir vinculos en una pestaña nueva" tal como lo muestra ésta imagen.

Superman, Red Son (2020) WEB-DL 1080p Latino

2.504 vistas

Información de Superman, Red Son (2020) WEB-DL 1080p Latino

Datos de la película

  • Calidad: WEBDL
  • Audio: Español Latino AC3 5.1 iTunes - Ingles AC3 5.1 iTunes
  • Subtitulos: Español Latino SRT- FORZADOS SRT
  • Resolución: 1920x1080
  • Formato: MKV
  • Codec: H.264
  • Encoder: cinemaniahdd
  • Mediainfo: Clic para Mostrar Datos Ver
  • Superman, Red Son (2020) WEB-DL 1080p Latino.mkv
    Format                      : Matroska
    Format version              : Version 4
    File size                   : 3.45 GiB
    Duration                    : 1 h 24 min
    Overall bit rate            : 5 864 kb/s
    Movie name                  : Superman, Red Son (2020) - CinemaniaHDD.Net
    Encoded date                : UTC 2020-02-25 02:17:45
    Writing application         : mkvmerge v42.0.0 ('Overtime') 64-bit
    Writing library             : libebml v1.3.10 + libmatroska v1.5.2

    Video
    ID                          : 1
    Format                      : AVC
    Format/Info                 : Advanced Video Codec
    Format profile              : High@L4
    Format settings             : CABAC / 4 Ref Frames
    Format settings, CABAC      : Yes
    Format settings, ReFrames   : 4 frames
    Codec ID                    : V_MPEG4/ISO/AVC
    Duration                    : 1 h 24 min
    Bit rate                    : 5 093 kb/s
    Width                       : 1 920 pixels
    Height                      : 1 078 pixels
    Display aspect ratio        : 16:9
    Frame rate mode             : Constant
    Frame rate                  : 23.976 FPS
    Color space                 : YUV
    Chroma subsampling          : 4:2:0
    Bit depth                   : 8 bits
    Scan type                   : Progressive
    Bits/(Pixel*Frame)          : 0.103
    Stream size                 : 3.00 GiB (87%)
    Title                       : CinemaniaHDD
    Language                    : English
    Default                     : Yes
    Forced                      : No
    Color range                 : Limited
    Color primaries             : BT.709
    Transfer characteristics    : BT.709
    Matrix coefficients         : BT.709

    Audio #1
    ID                          : 2
    Format                      : AC-3
    Format/Info                 : Audio Coding 3
    Commercial name             : Dolby Digital
    Codec ID                    : A_AC3
    Duration                    : 1 h 24 min
    Bit rate mode               : Constant
    Bit rate                    : 384 kb/s
    Channel(s)                  : 6 channels
    Channel layout              : L R C LFE Ls Rs
    Sampling rate               : 48.0 kHz
    Frame rate                  : 31.250 FPS (1536 SPF)
    Bit depth                   : 16 bits
    Compression mode            : Lossy
    Stream size                 : 231 MiB (7%)
    Title                       : Español latino [CinemaniaHDD]
    Language                    : Spanish
    Service kind                : Complete Main
    Default                     : Yes
    Forced                      : No

    Audio #2
    ID                          : 3
    Format                      : AC-3
    Format/Info                 : Audio Coding 3
    Commercial name             : Dolby Digital
    Codec ID                    : A_AC3
    Duration                    : 1 h 24 min
    Bit rate mode               : Constant
    Bit rate                    : 384 kb/s
    Channel(s)                  : 6 channels
    Channel layout              : L R C LFE Ls Rs
    Sampling rate               : 48.0 kHz
    Frame rate                  : 31.250 FPS (1536 SPF)
    Bit depth                   : 16 bits
    Compression mode            : Lossy
    Stream size                 : 231 MiB (7%)
    Title                       : Inglés [CinemaniaHDD]
    Language                    : English
    Service kind                : Complete Main
    Default                     : No
    Forced                      : No

    Text #1
    ID                          : 4
    Format                      : UTF-8
    Codec ID                    : S_TEXT/UTF8
    Codec ID/Info               : UTF-8 Plain Text
    Duration                    : 1 h 15 min
    Bit rate                    : 0 b/s
    Count of elements           : 8
    Stream size                 : 212 Bytes (0%)
    Title                       : Forzados [CinemaniaHDD]
    Language                    : Spanish
    Default                     : Yes
    Forced                      : Yes

    Text #2
    ID                          : 5
    Format                      : UTF-8
    Codec ID                    : S_TEXT/UTF8
    Codec ID/Info               : UTF-8 Plain Text
    Duration                    : 1 h 23 min
    Bit rate                    : 57 b/s
    Count of elements           : 824
    Stream size                 : 35.3 KiB (0%)
    Title                       : Español latino [CinemaniaHDD]
    Language                    : Spanish
    Default                     : No
    Forced                      : No

    Menu
    00:00:00.000                : en:1
    00:08:14.786                : en:2
    00:16:59.184                : en:3
    00:27:18.511                : en:4
    00:38:09.285                : en:5
    00:48:37.705                : en:6
    00:56:54.951                : en:7
    01:02:33.789                : en:8
    01:12:29.926                : en:9
    01:21:39.307                : en:10

     

  • Peso: 3.45 GiB

Sinopsis

Ambientada en la Guerra Fría, Red Son nos presenta a un Superman que aterrizó en la URSS durante la década de 1950 y crece para convertirse en un símbolo soviético que lucha por la preservación de la marca del comunismo de Stalin.

Ficha técnica

Video trailer de la película

Enlaces de descarga

Rip de Bluray

Descargar Superman, Red Son (2020) WEB-DL 1080p Latino




Aportes de DPeliculasHDmega la pass es:dpeliculashdmega.org Aportes de CinemaniaHD la pass es:cinemaniahdd.com

Películas relacionadas

descargar Superman, Red Son (2020) WEB-DL 1080p Latino WEBDL 1080p gratis, Superman, Red Son (2020) WEB-DL 1080p Latino WEBDL mega 1 link, Superman, Red Son (2020) WEB-DL 1080p Latino WEBDL pelicula completa, descargar Superman, Red Son (2020) WEB-DL 1080p Latino WEBDL gratis en mega.

Superman, Red Son (2020) WEB-DL 1080p Latino pelicula full hd, Superman, Red Son (2020) WEB-DL 1080p Latino mega latino, Superman, Red Son (2020) WEB-DL 1080p Latino 4k latino, Superman, Red Son (2020) WEB-DL 1080p Latino pelicula completa, Superman, Red Son (2020) WEB-DL 1080p Latino descargar gratis, descargar Superman, Red Son (2020) WEB-DL 1080p Latino pelicula latino, Superman, Red Son (2020) WEB-DL 1080p Latino 1 link mega, Superman, Red Son (2020) WEB-DL 1080p Latino 1 link google drive, Superman, Red Son (2020) WEB-DL 1080p Latino hd 1080p latino.
Comentarios 1
  • Alexis Kharkov lopez gonzalez - 27 febrero, 2020

    Gracias por la peli…