×

¿Problemas para descargar con Mozilla, EDGE? Deshabilita la opción "Abrir vinculos en una pestaña nueva" tal como lo muestra ésta imagen.

Superman IV (1987) REMUX 4K HDR Latino – CMHDD

228 vistas

Información de Superman IV (1987) REMUX 4K HDR Latino – CMHDD

Datos de la película

  • Calidad: 4K HDR
  • Audio: Español Latino AC3 1.0 BLURAY - Ingles AC3 5.1 BLURAY
  • Subtitulos: Español Latino PGS
  • Resolución: 3840x2160p
  • Formato: MKV
  • Codec: H.264
  • Encoder: Dracarys
  • Mediainfo: Clic para Mostrar Datos Ver
  • Format                      : Matroska
    Format version              : Version 4
    File size                   : 47.2 GiB
    Duration                    : 1 h 29 min
    Overall bit rate mode       : Variable
    Overall bit rate            : 75.3 Mb/s
    Movie name                  : Superman IV (1987) REMUX 4K HDR Latino - CMHDD
    Encoded date                : UTC 2023-04-26 03:39:27
    Writing application         : mkvmerge v47.0.0 ('Black Flag') 64-bit
    Writing library             : libebml v1.3.10 + libmatroska v1.5.2
    Cover                       : Yes
    Attachments                 : cover.jpg

    Video
    ID                          : 1
    ID in the original source m : 4113 (0x1011)
    Format                      : HEVC
    Format/Info                 : High Efficiency Video Coding
    Format profile              : Main 10@L5.1@High
    HDR format                  : SMPTE ST 2086, HDR10 compatible
    Codec ID                    : V_MPEGH/ISO/HEVC
    Duration                    : 1 h 29 min
    Bit rate                    : 72.9 Mb/s
    Width                       : 3 840 pixels
    Height                      : 2 160 pixels
    Display aspect ratio        : 16:9
    Frame rate mode             : Constant
    Frame rate                  : 23.976 (24000/1001) FPS
    Color space                 : YUV
    Chroma subsampling          : 4:2:0 (Type 2)
    Bit depth                   : 10 bits
    Bits/(Pixel*Frame)          : 0.367
    Stream size                 : 45.8 GiB (97%)
    Default                     : Yes
    Forced                      : No
    Color range                 : Limited
    Color primaries             : BT.2020
    Transfer characteristics    : PQ
    Matrix coefficients         : BT.2020 non-constant
    Mastering display color pri : Display P3
    Mastering display luminance : min: 0.0050 cd/m2, max: 4000 cd/m2
    Maximum Content Light Level : 1929 cd/m2
    Maximum Frame-Average Light : 351 cd/m2
    Original source medium      : Blu-ray

    Audio #1
    ID                          : 2
    ID in the original source m : 4352 (0x1100)
    Format                      : AC-3
    Format/Info                 : Audio Coding 3
    Commercial name             : Dolby Digital
    Codec ID                    : A_AC3
    Duration                    : 1 h 29 min
    Bit rate mode               : Constant
    Bit rate                    : 448 kb/s
    Channel(s)                  : 6 channels
    Channel layout              : L R C LFE Ls Rs
    Sampling rate               : 48.0 kHz
    Frame rate                  : 31.250 FPS (1536 SPF)
    Compression mode            : Lossy
    Stream size                 : 288 MiB (1%)
    Language                    : English
    Service kind                : Complete Main
    Default                     : No
    Forced                      : No
    Original source medium      : Blu-ray

    Audio #2
    ID                          : 3
    ID in the original source m : 4353 (0x1101)
    Format                      : DTS XLL
    Format/Info                 : Digital Theater Systems
    Commercial name             : DTS-HD Master Audio
    Codec ID                    : A_DTS
    Duration                    : 1 h 29 min
    Bit rate mode               : Variable
    Bit rate                    : 1 720 kb/s
    Channel(s)                  : 2 channels
    Sampling rate               : 48.0 kHz
    Frame rate                  : 93.750 FPS (512 SPF)
    Bit depth                   : 24 bits
    Compression mode            : Lossless
    Stream size                 : 1.08 GiB (2%)
    Language                    : English
    Default                     : No
    Forced                      : No
    Original source medium      : Blu-ray

    Audio #3
    ID                          : 4
    ID in the original source m : 4358 (0x1106)
    Format                      : AC-3
    Format/Info                 : Audio Coding 3
    Commercial name             : Dolby Digital
    Codec ID                    : A_AC3
    Duration                    : 1 h 29 min
    Bit rate mode               : Constant
    Bit rate                    : 192 kb/s
    Channel(s)                  : 1 channel
    Channel layout              : C
    Sampling rate               : 48.0 kHz
    Frame rate                  : 31.250 FPS (1536 SPF)
    Compression mode            : Lossy
    Delay relative to video     : 23 ms
    Stream size                 : 123 MiB (0%)
    Language                    : Spanish
    Service kind                : Complete Main
    Default                     : Yes
    Forced                      : No
    Original source medium      : Blu-ray

    Text #1
    ID                          : 5
    ID in the original source m : 4775 (0x12A7)
    Format                      : PGS
    Muxing mode                 : zlib
    Codec ID                    : S_HDMV/PGS
    Codec ID/Info               : Picture based subtitle format used on BDs/HD-DVDs
    Duration                    : 1 h 28 min
    Bit rate                    : 28.3 kb/s
    Frame rate                  : 0.314 FPS
    Count of elements           : 1676
    Stream size                 : 18.0 MiB (0%)
    Language                    : Spanish
    Default                     : No
    Forced                      : No
    Original source medium      : Blu-ray

    Text #2
    ID                          : 6
    ID in the original source m : 4784 (0x12B0)
    Format                      : PGS
    Muxing mode                 : zlib
    Codec ID                    : S_HDMV/PGS
    Codec ID/Info               : Picture based subtitle format used on BDs/HD-DVDs
    Duration                    : 1 h 21 min
    Bit rate                    : 522 b/s
    Frame rate                  : 0.007 FPS
    Count of elements           : 36
    Stream size                 : 313 KiB (0%)
    Language                    : Spanish
    Default                     : No
    Forced                      : No
    Original source medium      : Blu-ray

    Menu
    00:00:00.000                : en:Capítulo 01
    00:02:49.919                : en:Capítulo 02
    00:05:09.976                : en:Capítulo 03
    00:07:48.342                : en:Capítulo 04
    00:10:05.646                : en:Capítulo 05
    00:12:39.300                : en:Capítulo 06
    00:14:42.006                : en:Capítulo 07
    00:17:39.641                : en:Capítulo 08
    00:20:20.761                : en:Capítulo 09
    00:24:19.040                : en:Capítulo 10
    00:25:43.667                : en:Capítulo 11
    00:31:05.280                : en:Capítulo 12
    00:33:57.160                : en:Capítulo 13
    00:35:52.859                : en:Capítulo 14
    00:39:30.951                : en:Capítulo 15
    00:42:37.388                : en:Capítulo 16
    00:44:56.485                : en:Capítulo 17
    00:48:22.357                : en:Capítulo 18
    00:54:15.126                : en:Capítulo 19
    00:58:16.326                : en:Capítulo 20
    01:02:12.270                : en:Capítulo 21
    01:05:20.499                : en:Capítulo 22
    01:09:56.859                : en:Capítulo 23
    01:12:38.103                : en:Capítulo 24
    01:14:50.694                : en:Capítulo 25
    01:19:16.585                : en:Capítulo 26
    01:21:35.223                : en:Capítulo 27
    01:24:27.270                : en:Capítulo 28
    01:26:04.242                : en:Capítulo 29

  • Peso: 47.2 GiB

Sinopsis

Poco despues de que la cumbre USA-URSS para el desarme nuclear fracase, el mundo se ve al borde de la III guerra mundial. Superman recibe la carta del niño Jeremy, quien le pide que salve el mundo de la inminente guerra atómica. Desafiando al espíritu de los sabios de Krypton, el Hombre de Acero anuncia a la ONU que destruirá todas las armas nucleares, tanto del Este como del Oeste. Sin embargo, esto es aprovechado por el genio criminal Lex Luthor, recién fugado de prisión, quien se alía con los militaristas americanos y soviéticos para crear a Nuclear Man, un supermonstruo que aniquilará al Ultimo Hijo de Krypton.

Ficha técnica

Video trailer de la película

Enlaces de descarga

Rip de Bluray

Descargar Superman IV (1987) REMUX 4K HDR Latino – CMHDD


Aportes de DPeliculasHDmega la pass es:dpeliculashdmega.org Aportes de CinemaniaHD la pass es:cinemaniahdd.com Aportes recientes:cinemaniahdd.net
Guardado en : Acción , Aventura , Ciencia ficción

Películas relacionadas

descargar Superman IV (1987) REMUX 4K HDR Latino – CMHDD 4K HDR 1080p gratis, Superman IV (1987) REMUX 4K HDR Latino – CMHDD 4K HDR mega 1 link, Superman IV (1987) REMUX 4K HDR Latino – CMHDD 4K HDR pelicula completa, descargar Superman IV (1987) REMUX 4K HDR Latino – CMHDD 4K HDR gratis en mega.

Superman IV (1987) REMUX 4K HDR Latino – CMHDD pelicula full hd, Superman IV (1987) REMUX 4K HDR Latino – CMHDD mega latino, Superman IV (1987) REMUX 4K HDR Latino – CMHDD 4k latino, Superman IV (1987) REMUX 4K HDR Latino – CMHDD pelicula completa, Superman IV (1987) REMUX 4K HDR Latino – CMHDD descargar gratis, descargar Superman IV (1987) REMUX 4K HDR Latino – CMHDD pelicula latino, Superman IV (1987) REMUX 4K HDR Latino – CMHDD 1 link mega, Superman IV (1987) REMUX 4K HDR Latino – CMHDD 1 link google drive, Superman IV (1987) REMUX 4K HDR Latino – CMHDD hd 1080p latino.
Comentarios 0