×

¿Problemas para descargar con Mozilla, EDGE? Deshabilita la opción "Abrir vinculos en una pestaña nueva" tal como lo muestra ésta imagen.

Superman II (1980) REMUX 4K HDR Latino – CMHDD

250 vistas

Información de Superman II (1980) REMUX 4K HDR Latino – CMHDD

Datos de la película

  • Calidad: 4K HDR
  • Audio: Español Latino AC3 1.0 BLURAY - Ingles AC3 5.1 BLURAY
  • Subtitulos: Español Latino PGS
  • Resolución: 3840x2160p
  • Formato: MKV
  • Codec: H.264
  • Encoder: Dracarys
  • Mediainfo: Clic para Mostrar Datos Ver
  • Format                      : Matroska
    Format version              : Version 4
    File size                   : 50.9 GiB
    Duration                    : 2 h 7 min
    Overall bit rate mode       : Variable
    Overall bit rate            : 57.1 Mb/s
    Movie name                  : Superman II (1980) REMUX 4K HDR Latino - CMHDD
    Encoded date                : UTC 2023-04-23 04:06:36
    Writing application         : mkvmerge v47.0.0 ('Black Flag') 64-bit
    Writing library             : libebml v1.3.10 + libmatroska v1.5.2
    Cover                       : Yes
    Attachments                 : cover.jpg

    Video
    ID                          : 1
    ID in the original source m : 4113 (0x1011)
    Format                      : HEVC
    Format/Info                 : High Efficiency Video Coding
    Format profile              : Main 10@L5.1@High
    HDR format                  : SMPTE ST 2086, HDR10 compatible
    Codec ID                    : V_MPEGH/ISO/HEVC
    Duration                    : 2 h 7 min
    Bit rate                    : 54.5 Mb/s
    Width                       : 3 840 pixels
    Height                      : 2 160 pixels
    Display aspect ratio        : 16:9
    Frame rate mode             : Constant
    Frame rate                  : 23.976 (24000/1001) FPS
    Color space                 : YUV
    Chroma subsampling          : 4:2:0 (Type 2)
    Bit depth                   : 10 bits
    Bits/(Pixel*Frame)          : 0.274
    Stream size                 : 48.5 GiB (95%)
    Default                     : Yes
    Forced                      : No
    Color range                 : Limited
    Color primaries             : BT.2020
    Transfer characteristics    : PQ
    Matrix coefficients         : BT.2020 non-constant
    Mastering display color pri : Display P3
    Mastering display luminance : min: 0.0001 cd/m2, max: 1000 cd/m2
    Maximum Content Light Level : 995 cd/m2
    Maximum Frame-Average Light : 281 cd/m2
    Original source medium      : Blu-ray

    Audio #1
    ID                          : 2
    ID in the original source m : 4352 (0x1100)
    Format                      : AC-3
    Format/Info                 : Audio Coding 3
    Commercial name             : Dolby Digital
    Codec ID                    : A_AC3
    Duration                    : 2 h 7 min
    Bit rate mode               : Constant
    Bit rate                    : 448 kb/s
    Channel(s)                  : 6 channels
    Channel layout              : L R C LFE Ls Rs
    Sampling rate               : 48.0 kHz
    Frame rate                  : 31.250 FPS (1536 SPF)
    Compression mode            : Lossy
    Stream size                 : 408 MiB (1%)
    Language                    : English
    Service kind                : Complete Main
    Default                     : No
    Forced                      : No
    Original source medium      : Blu-ray

    Audio #2
    ID                          : 3
    ID in the original source m : 4353 (0x1101)
    Format                      : DTS XLL
    Format/Info                 : Digital Theater Systems
    Commercial name             : DTS-HD Master Audio
    Codec ID                    : A_DTS
    Duration                    : 2 h 7 min
    Bit rate mode               : Variable
    Bit rate                    : 2 009 kb/s
    Channel(s)                  : 2 channels
    Sampling rate               : 48.0 kHz
    Frame rate                  : 93.750 FPS (512 SPF)
    Bit depth                   : 24 bits
    Compression mode            : Lossless
    Stream size                 : 1.79 GiB (4%)
    Language                    : English
    Default                     : No
    Forced                      : No
    Original source medium      : Blu-ray

    Audio #3
    ID                          : 4
    ID in the original source m : 4358 (0x1106)
    Format                      : AC-3
    Format/Info                 : Audio Coding 3
    Commercial name             : Dolby Digital
    Codec ID                    : A_AC3
    Duration                    : 2 h 7 min
    Bit rate mode               : Constant
    Bit rate                    : 192 kb/s
    Channel(s)                  : 1 channel
    Channel layout              : C
    Sampling rate               : 48.0 kHz
    Frame rate                  : 31.250 FPS (1536 SPF)
    Compression mode            : Lossy
    Delay relative to video     : 23 ms
    Stream size                 : 175 MiB (0%)
    Language                    : Spanish
    Service kind                : Complete Main
    Default                     : Yes
    Forced                      : No
    Original source medium      : Blu-ray

    Text #1
    ID                          : 5
    ID in the original source m : 4775 (0x12A7)
    Format                      : PGS
    Muxing mode                 : zlib
    Codec ID                    : S_HDMV/PGS
    Codec ID/Info               : Picture based subtitle format used on BDs/HD-DVDs
    Duration                    : 2 h 1 min
    Bit rate                    : 23.1 kb/s
    Frame rate                  : 0.354 FPS
    Count of elements           : 2582
    Stream size                 : 20.1 MiB (0%)
    Language                    : Spanish
    Default                     : No
    Forced                      : No
    Original source medium      : Blu-ray

    Text #2
    ID                          : 6
    ID in the original source m : 4779 (0x12AB)
    Format                      : PGS
    Muxing mode                 : zlib
    Codec ID                    : S_HDMV/PGS
    Codec ID/Info               : Picture based subtitle format used on BDs/HD-DVDs
    Duration                    : 1 h 18 min
    Bit rate                    : 123 b/s
    Frame rate                  : 0.002 FPS
    Count of elements           : 10
    Stream size                 : 71.5 KiB (0%)
    Language                    : Spanish
    Default                     : No
    Forced                      : No
    Original source medium      : Blu-ray

    Menu
    00:00:00.000                : en:Capítulo 01
    00:03:07.520                : en:Capítulo 02
    00:08:33.054                : en:Capítulo 03
    00:12:17.445                : en:Capítulo 04
    00:18:10.339                : en:Capítulo 05
    00:22:32.476                : en:Capítulo 06
    00:24:43.648                : en:Capítulo 07
    00:30:12.519                : en:Capítulo 08
    00:33:12.198                : en:Capítulo 09
    00:37:13.105                : en:Capítulo 10
    00:41:43.959                : en:Capítulo 11
    00:46:19.735                : en:Capítulo 12
    00:49:43.522                : en:Capítulo 13
    00:51:41.431                : en:Capítulo 14
    00:54:56.209                : en:Capítulo 15
    00:57:56.347                : en:Capítulo 16
    00:59:03.706                : en:Capítulo 17
    01:01:42.323                : en:Capítulo 18
    01:03:42.443                : en:Capítulo 19
    01:06:34.031                : en:Capítulo 20
    01:10:30.559                : en:Capítulo 21
    01:14:41.852                : en:Capítulo 22
    01:18:13.313                : en:Capítulo 23
    01:21:38.643                : en:Capítulo 24
    01:23:30.714                : en:Capítulo 25
    01:26:11.833                : en:Capítulo 26
    01:29:12.221                : en:Capítulo 27
    01:32:22.745                : en:Capítulo 28
    01:39:43.519                : en:Capítulo 29
    01:41:43.889                : en:Capítulo 30
    01:44:12.246                : en:Capítulo 31
    01:46:38.892                : en:Capítulo 32
    01:50:26.661                : en:Capítulo 33
    01:55:37.430                : en:Capítulo 34
    02:00:45.279                : en:Capítulo 35
    02:02:32.470                : en:Capítulo 36
    02:03:18.265                : en:Capítulo 37

  • Peso: 50.9 GiB

Sinopsis

Tres criminales, procedentes del planeta Krypton, a los que el padre de Superman condenó a vagar por el espacio, eluden su condena y se dirigen a la Tierra para enfrentarse a Superman, en una batalla cósmica por la supremacía sobre el planeta. Al mismo tiempo, el superhéroe continúa ocultando su identidad tras la tímida personalidad del reportero Clark Kent, aunque su novia Lois Lane comienza a sospechar algo.

Ficha técnica

Video trailer de la película

Enlaces de descarga

Rip de Bluray

Descargar Superman II (1980) REMUX 4K HDR Latino – CMHDD


Aportes de DPeliculasHDmega la pass es:dpeliculashdmega.org Aportes de CinemaniaHD la pass es:cinemaniahdd.com Aportes recientes:cinemaniahdd.net
Guardado en : Acción , Aventura , Ciencia ficción

Películas relacionadas

  • Dune: Parte dos (2024) WEB-DL 4K UHD HDR Latino

    Dune: Parte dos (2024) WEB-DL 4K UHD HDR Latino

    2024
    Dune: Parte dos (2024) WEB-DL 4K UHD HDR Latino

    2h 47m 2024

    Descargar Dune: Parte dos (2024) WEB-DL 4K UHD HDR Latino. Sigue el viaje mítico de Paul Atreides mientras...

    Director: Vera Janisch

    Género: 4K HDR

    Actores: Zouhair Elakkari

  • Dune: Parte dos (2024) AMZN WEB-DL 1080p Latino

    Dune: Parte dos (2024) AMZN WEB-DL 1080p Latino

    2024
    Dune: Parte dos (2024) AMZN WEB-DL 1080p Latino

    2h 47m 2024

    Descargar Dune: Parte dos (2024) AMZN WEB-DL 1080p Latino. Sigue el viaje mítico de Paul Atreides mientras...

    Director: Vera Janisch

    Género: Aventura

    Actores: Zouhair Elakkari

  • Godzilla vs. Kong (2021) REMUX 4K HDR Latino – CMHDD

    Godzilla vs. Kong (2021) REMUX 4K HDR Latino – CMHDD

    2021
    Godzilla vs. Kong (2021) REMUX 4K HDR Latino – CMHDD

    1h 54m 2021

    Godzilla y Kong, dos de las fuerzas más poderosas de un planeta habitado por todo tipo de aterradoras...

    Director: Thomas Robinson Harper

    Género: Acción

    Actores: Victoria Liu

  • Bumblebee (2018) REMUX 4K HDR Latino – CMHDD

    Bumblebee (2018) REMUX 4K HDR Latino – CMHDD

    2018
    Bumblebee (2018) REMUX 4K HDR Latino – CMHDD

    1h 54m 2018

    Sexta entrega de la saga 'Transformers', esta vez centrada en el "hermano pequeño" de los Autobots,...

    Director: Trisha Burton

    Género: Acción

    Actores: William W. Barbour

descargar Superman II (1980) REMUX 4K HDR Latino – CMHDD 4K HDR 1080p gratis, Superman II (1980) REMUX 4K HDR Latino – CMHDD 4K HDR mega 1 link, Superman II (1980) REMUX 4K HDR Latino – CMHDD 4K HDR pelicula completa, descargar Superman II (1980) REMUX 4K HDR Latino – CMHDD 4K HDR gratis en mega.

Superman II (1980) REMUX 4K HDR Latino – CMHDD pelicula full hd, Superman II (1980) REMUX 4K HDR Latino – CMHDD mega latino, Superman II (1980) REMUX 4K HDR Latino – CMHDD 4k latino, Superman II (1980) REMUX 4K HDR Latino – CMHDD pelicula completa, Superman II (1980) REMUX 4K HDR Latino – CMHDD descargar gratis, descargar Superman II (1980) REMUX 4K HDR Latino – CMHDD pelicula latino, Superman II (1980) REMUX 4K HDR Latino – CMHDD 1 link mega, Superman II (1980) REMUX 4K HDR Latino – CMHDD 1 link google drive, Superman II (1980) REMUX 4K HDR Latino – CMHDD hd 1080p latino.
Comentarios 0