×

¿Problemas para descargar con Mozilla, EDGE? Deshabilita la opción "Abrir vinculos en una pestaña nueva" tal como lo muestra ésta imagen.

Superman & Lois (2021) Temporada 01 REMUX 1080p Latino

265 vistas

Información de Superman & Lois (2021) Temporada 01 REMUX 1080p Latino

Datos de la película

  • Calidad: Full 1080p
  • Audio: Se especifica abajo de la Sinopsis
  • Subtitulos: Español Latino SRT
  • Resolución: 1920x1080p
  • Formato: MKV
  • Codec: H.264
  • Encoder: CinefiloCool
  • Mediainfo: Clic para Mostrar Datos Ver
  • Superman y Lois S01E01 (2021) REMUX 1080p Latino-CMHDD.mkv
    Format                      : Matroska
    Format version              : Version 4
    File size                   : 10.3 GiB
    Duration                    : 1 h 3 min
    Overall bit rate mode       : Variable
    Overall bit rate            : 23.0 Mb/s
    Movie name                  : Superman & Lois S01E01 - Pilot CinemaniaHDD.Net
    Encoded date                : UTC 2021-10-29 06:21:35
    Writing application         : mkvmerge v56.1.0 ('My Friend') 64-bit
    Writing library             : libebml v1.4.2 + libmatroska v1.6.4
    Attachments                 : CINEMANIAHD.png

    Video
    ID                          : 1
    Format                      : AVC
    Format/Info                 : Advanced Video Codec
    Format profile              : High@L4.1
    Format settings             : CABAC / 4 Ref Frames
    Format settings, CABAC      : Yes
    Format settings, Reference  : 4 frames
    Codec ID                    : V_MPEG4/ISO/AVC
    Duration                    : 1 h 3 min
    Bit rate mode               : Variable
    Bit rate                    : 20.5 Mb/s
    Maximum bit rate            : 38.0 Mb/s
    Width                       : 1 920 pixels
    Height                      : 1 080 pixels
    Display aspect ratio        : 16:9
    Frame rate mode             : Constant
    Frame rate                  : 23.976 (24000/1001) FPS
    Color space                 : YUV
    Chroma subsampling          : 4:2:0
    Bit depth                   : 8 bits
    Scan type                   : Progressive
    Bits/(Pixel*Frame)          : 0.412
    Stream size                 : 9.13 GiB (89%)
    Title                       : REMUX HD1080p [CinemaniaHDD]
    Default                     : Yes
    Forced                      : Yes

    Audio #1
    ID                          : 2
    Format                      : AC-3
    Format/Info                 : Audio Coding 3
    Commercial name             : Dolby Digital
    Codec ID                    : A_AC3
    Duration                    : 1 h 3 min
    Bit rate mode               : Constant
    Bit rate                    : 384 kb/s
    Channel(s)                  : 6 channels
    Channel layout              : L R C LFE Ls Rs
    Sampling rate               : 48.0 kHz
    Frame rate                  : 31.250 FPS (1536 SPF)
    Compression mode            : Lossy
    Stream size                 : 175 MiB (2%)
    Title                       : Español Latino [CinemaniaHDD]
    Language                    : Spanish
    Service kind                : Complete Main
    Default                     : Yes
    Forced                      : Yes

    Audio #2
    ID                          : 3
    Format                      : DTS XLL
    Format/Info                 : Digital Theater Systems
    Commercial name             : DTS-HD Master Audio
    Codec ID                    : A_DTS
    Duration                    : 1 h 3 min
    Bit rate mode               : Variable
    Bit rate                    : 2 159 kb/s
    Channel(s)                  : 6 channels
    Channel layout              : C L R Ls Rs LFE
    Sampling rate               : 48.0 kHz
    Frame rate                  : 93.750 FPS (512 SPF)
    Bit depth                   : 16 bits
    Compression mode            : Lossless
    Stream size                 : 987 MiB (9%)
    Title                       : Ingles [CinemaniaHDD]
    Language                    : English
    Default                     : No
    Forced                      : No

    Text #1
    ID                          : 4
    Format                      : UTF-8
    Codec ID                    : S_TEXT/UTF8
    Codec ID/Info               : UTF-8 Plain Text
    Duration                    : 1 h 2 min
    Bit rate                    : 65 b/s
    Count of elements           : 835
    Stream size                 : 30.3 KiB (0%)
    Title                       : Español-SRT [CinemaniaHDD]
    Language                    : Spanish
    Default                     : No
    Forced                      : No

    Text #2
    ID                          : 5
    Format                      : PGS
    Muxing mode                 : zlib
    Codec ID                    : S_HDMV/PGS
    Codec ID/Info               : Picture based subtitle format used on BDs/HD-DVDs
    Duration                    : 1 h 3 min
    Bit rate                    : 41.3 kb/s
    Count of elements           : 1752
    Stream size                 : 18.6 MiB (0%)
    Title                       : Ingles-PGS [CinemaniaHDD]
    Language                    : English
    Default                     : No
    Forced                      : No

    Menu
    00:00:00.000                : Chapter 1
    00:07:03.423                : Chapter 2
    00:17:00.853                : Chapter 3
    00:26:15.699                : Chapter 4
    00:32:08.218                : Chapter 5
    00:37:45.513                : Chapter 6
    00:44:19.782                : Chapter 7
    00:51:34.091                : Chapter 8
    00:57:54.554                : Chapter 9
    01:03:24.384                : Chapter 10

  • Peso: 6.73 - 10.2 GiB Aprox. C/U | 110 GiB Total.

Sinopsis

Descargar Superman & Lois (2021) Temporada 01 REMUX 1080p Latino. Superman & Lois es una serie de aventuras sobre la vida de Clark Kent y su pareja Lois Lane mientras se enfrentan a una vida profesional y una familiar un tanto agitada, añadiendo de que se tratan de unos padres jóvenes en la sociedad de hoy día. Para complicar ya el trabajo de padres, también deben preocuparse por si sus hijos, podrían heredar o no los superpoderes de El hombre de Acero a medida que van creciendo.

Argumento Primera Temporada: Tras años de enfrentarse a supervillanos megalómanos, a monstruos que causan estragos en Metrópolis y a invasores alienígenas que pretenden acabar con la raza humana, el Hombre de Acero alias Clark Kent y Lois Lane se enfrentan a uno de sus mayores retos: lidiar con todo el estrés, las presiones y las complejidades que conlleva ser padres trabajadores en la sociedad actual. Mientras viven en Smallville, allí se reencuentran con Lana Lang y su esposo, estos volverán a retomar una amistad mientras sus hijos se reencuentran también.

Audio:
Español Latino Editado AC3 5.1 HMAX – Ingles DTS-HD 5.1 Bluray
Audio Latino: n0197exe Thanks!!! 😀
Disponible Solo para VIP!!

Ficha técnica

Video trailer de la película

Enlaces de descarga

Rip de Bluray

Descargar Superman & Lois (2021) Temporada 01 REMUX 1080p Latino


Aportes de DPeliculasHDmega la pass es:dpeliculashdmega.org Aportes de CinemaniaHD la pass es:cinemaniahdd.com

Películas relacionadas

  • Hombre de familia (2000) REMUX 1080p Latino

    Hombre de familia (2000) REMUX 1080p Latino

    2000
    Hombre de familia (2000) REMUX 1080p Latino

    2h 1m 2000

    Descargar Hombre de familia (2000) REMUX 1080p Latino. Jack Campbell es un egocéntrico broker de Wall...

    Director: Robert Schroer

    Género: Comedia

    Actores: Wass Stevens

  • Anon (2018) REMUX 1080p Latino

    Anon (2018) REMUX 1080p Latino

    2018
    Anon (2018) REMUX 1080p Latino

    1h 40m 2018

    Descargar Anon (2018) REMUX 1080p Latino. Anon nos lleva hasta un futuro no muy lejano al estilo soviético,...

    Director: Sarah Campbell

    Género: Ciencia ficción

    Actores: Zion Lee

  • Te Amo Brother (2009) REMUX 1080p Latino

    Te Amo Brother (2009) REMUX 1080p Latino

    2009
    Te Amo Brother (2009) REMUX 1080p Latino

    1h 45m 2009

    Descargar Te Amo Brother (2009) REMUX 1080p Latino. Peter Klaven (Paul Rudd) es un joven que vive muy...

    Director: Scott Robertson

    Género: Comedia

    Actores: Vicki Davis

descargar Superman & Lois (2021) Temporada 01 REMUX 1080p Latino Full 1080p 1080p gratis, Superman & Lois (2021) Temporada 01 REMUX 1080p Latino Full 1080p mega 1 link, Superman & Lois (2021) Temporada 01 REMUX 1080p Latino Full 1080p serie completa, descargar Superman & Lois (2021) Temporada 01 REMUX 1080p Latino Full 1080p gratis en mega.

Superman & Lois (2021) Temporada 01 REMUX 1080p Latino pelicula full hd, Superman & Lois (2021) Temporada 01 REMUX 1080p Latino mega latino, Superman & Lois (2021) Temporada 01 REMUX 1080p Latino 4k latino, Superman & Lois (2021) Temporada 01 REMUX 1080p Latino pelicula completa, Superman & Lois (2021) Temporada 01 REMUX 1080p Latino descargar gratis, descargar Superman & Lois (2021) Temporada 01 REMUX 1080p Latino pelicula latino, Superman & Lois (2021) Temporada 01 REMUX 1080p Latino 1 link mega, Superman & Lois (2021) Temporada 01 REMUX 1080p Latino 1 link google drive, Superman & Lois (2021) Temporada 01 REMUX 1080p Latino hd 1080p latino.
Comentarios 0