×

¿Problemas para descargar con Mozilla, EDGE? Deshabilita la opción "Abrir vinculos en una pestaña nueva" tal como lo muestra ésta imagen.

Superlópez (2018) Web-DL 1080p Castellano

1.565 vistas

Información de Superlópez (2018) Web-DL 1080p Castellano

superlopez 50733 poster

Datos de la película

  • Calidad: WEBDL
  • Audio: Se especifica abajo de la Sinopsis
  • Subtitulos: No
  • Resolución: 1920X1080p
  • Formato: MKV
  • Codec: H.264
  • Encoder: CinemaniaHD
  • Mediainfo: Clic para Mostrar Datos Ver
  • Super Lopez (2018) WebDL 1080p Castellano.mkv
    Format                      : Matroska
    Format version              : Version 4
    File size                   : 2.74 GiB
    Duration                    : 1 h 47 min
    Overall bit rate            : 3 652 kb/s
    Movie name                  : CinemaniaHDD.Net
    Encoded date                : UTC 2019-03-27 15:34:31
    Writing application         : mkvmerge v30.1.0 ('Forever And More') 64-bit
    Writing library             : libebml v1.3.6 + libmatroska v1.4.9

    Video
    ID                          : 1
    Format                      : AVC
    Format/Info                 : Advanced Video Codec
    Format profile              : High@L4
    Format settings             : CABAC / 3 Ref Frames
    Format settings, CABAC      : Yes
    Format settings, ReFrames   : 3 frames
    Codec ID                    : V_MPEG4/ISO/AVC
    Duration                    : 1 h 47 min
    Bit rate                    : 3 266 kb/s
    Width                       : 1 920 pixels
    Height                      : 1 080 pixels
    Display aspect ratio        : 16:9
    Frame rate mode             : Constant
    Frame rate                  : 24.000 FPS
    Color space                 : YUV
    Chroma subsampling          : 4:2:0
    Bit depth                   : 8 bits
    Scan type                   : Progressive
    Bits/(Pixel*Frame)          : 0.066
    Stream size                 : 2.45 GiB (89%)
    Title                       : HD1080p [WebDL]
    Default                     : Yes
    Forced                      : No

    Audio
    ID                          : 2
    Format                      : AC-3
    Format/Info                 : Audio Coding 3
    Commercial name             : Dolby Digital
    Codec ID                    : A_AC3
    Duration                    : 1 h 47 min
    Bit rate mode               : Constant
    Bit rate                    : 384 kb/s
    Channel(s)                  : 6 channels
    Channel layout              : L R C LFE Ls Rs
    Sampling rate               : 48.0 kHz
    Frame rate                  : 31.250 FPS (1536 SPF)
    Bit depth                   : 16 bits
    Compression mode            : Lossy
    Stream size                 : 295 MiB (11%)
    Title                       : AC3_5.1_WebDL_Cast
    Language                    : Spanish
    Service kind                : Complete Main
    Default                     : Yes
    Forced                      : Yes

  • Peso: 2.74

Sinopsis

Superlópez (2018) Web-DL 1080p Castellano, Mega; Google Drive. Superlópez (Dani Rovira) nació en el planeta Chitón con el nombre de Jo-Con-Él y, después de colarse en un cohete, consiguió llegar hasta la Tierra siendo todavía un bebé. Tras ser encontrado cerca de Lérida, es adoptado por el matrimonio López, que decide llamar al chico Juan López. Juan crece como un humano más, al tiempo que se esfuerza por controlar sus superpoderes y combatir el mal. Ya adulto, comienza a trabajar como contable en una oficina en Barcelona. Sometido a la presión de su jefe y a los antojos de su dominante novia Luisa Lanas (Alexandra Jiménez), se evade de la rutina diaria ejerciendo de superhéroe bajo el nombre de Superlópez.

Audio Español Castellano AC3 5.1 WebDL

Ficha técnica

Video trailer de la película

Enlaces de descarga

Rip de Bluray

Descargar Superlópez (2018) Web-DL 1080p Castellano




Aportes de DPeliculasHDmega la pass es:dpeliculashdmega.org Aportes de CinemaniaHD la pass es:cinemaniahdd.com
Guardado en : Acción , Castellano , Comedia

Películas relacionadas

descargar Superlópez (2018) Web-DL 1080p Castellano WEBDL 1080p gratis, Superlópez (2018) Web-DL 1080p Castellano WEBDL mega 1 link, Superlópez (2018) Web-DL 1080p Castellano WEBDL pelicula completa, descargar Superlópez (2018) Web-DL 1080p Castellano WEBDL gratis en mega.

Superlópez (2018) Web-DL 1080p Castellano pelicula full hd, Superlópez (2018) Web-DL 1080p Castellano mega latino, Superlópez (2018) Web-DL 1080p Castellano 4k latino, Superlópez (2018) Web-DL 1080p Castellano pelicula completa, Superlópez (2018) Web-DL 1080p Castellano descargar gratis, descargar Superlópez (2018) Web-DL 1080p Castellano pelicula latino, Superlópez (2018) Web-DL 1080p Castellano 1 link mega, Superlópez (2018) Web-DL 1080p Castellano 1 link google drive, Superlópez (2018) Web-DL 1080p Castellano hd 1080p latino.
Comentarios 0