Supergirl (2021) Temporada 06 AMZN Web-DL 1080p Latino

243 vistas
1 estrella2 estrellas3 estrellas4 estrellas5 estrellas (2 votos, promedio: 5,00 de 5)
Cargando...

Información de Supergirl (2021) Temporada 06 AMZN Web-DL 1080p Latino

Datos de la película

  • Calidad: WEBDL
  • Audio: Español Latino AC3 2.0 Capturado - Ingles AC3 5.1 WEBDL
  • Subtitulos: Español Latino SRT - Ingles SRT
  • Resolución: 1920x1080p
  • Formato: MKV
  • Codec: H.264
  • Encoder: CinefiloCool
  • Mediainfo: Clic para Mostrar Datos Ver
  • Supergirl S06E01 AMZN Web-DL 1080p Latino-CMHDD.mkv
    Format                      : Matroska
    Format version              : Version 4
    File size                   : 3.12 GiB
    Duration                    : 42 min 16 s
    Overall bit rate            : 10.6 Mb/s
    Movie name                  : CinemaniaHDD.Net
    Encoded date                : UTC 2021-04-16 07:30:26
    Writing application         : mkvmerge v51.0.0 ('I Wish') 64-bit
    Writing library             : libebml v1.4.0 + libmatroska v1.6.2
    Attachments                 : CINEMANIAHD.png

    Video
    ID                          : 1
    Format                      : AVC
    Format/Info                 : Advanced Video Codec
    Format profile              : High@L4
    Format settings             : CABAC / 4 Ref Frames
    Format settings, CABAC      : Yes
    Format settings, Reference  : 4 frames
    Codec ID                    : V_MPEG4/ISO/AVC
    Duration                    : 42 min 16 s
    Bit rate mode               : Constant
    Bit rate                    : 10 000 kb/s
    Width                       : 1 920 pixels
    Height                      : 1 080 pixels
    Display aspect ratio        : 16:9
    Frame rate mode             : Constant
    Frame rate                  : 23.976 (24000/1001) FPS
    Color space                 : YUV
    Chroma subsampling          : 4:2:0
    Bit depth                   : 8 bits
    Scan type                   : Progressive
    Bits/(Pixel*Frame)          : 0.201
    Stream size                 : 2.85 GiB (91%)
    Title                       : WEB HD1080p [CinemaniaHDD]
    Default                     : Yes
    Forced                      : No
    Color range                 : Limited
    Color primaries             : BT.709
    Transfer characteristics    : BT.709
    Matrix coefficients         : BT.709

    Audio #1
    ID                          : 2
    Format                      : AC-3
    Format/Info                 : Audio Coding 3
    Commercial name             : Dolby Digital
    Codec ID                    : A_AC3
    Duration                    : 42 min 16 s
    Bit rate mode               : Constant
    Bit rate                    : 256 kb/s
    Channel(s)                  : 2 channels
    Channel layout              : L R
    Sampling rate               : 48.0 kHz
    Frame rate                  : 31.250 FPS (1536 SPF)
    Compression mode            : Lossy
    Stream size                 : 77.4 MiB (2%)
    Title                       : AC3_2.0_TV_Esp
    Language                    : Spanish
    Service kind                : Complete Main
    Default                     : Yes
    Forced                      : No

    Audio #2
    ID                          : 3
    Format                      : E-AC-3
    Format/Info                 : Enhanced AC-3
    Commercial name             : Dolby Digital Plus
    Codec ID                    : A_EAC3
    Duration                    : 42 min 16 s
    Bit rate mode               : Constant
    Bit rate                    : 640 kb/s
    Channel(s)                  : 6 channels
    Channel layout              : L R C LFE Ls Rs
    Sampling rate               : 48.0 kHz
    Frame rate                  : 31.250 FPS (1536 SPF)
    Compression mode            : Lossy
    Stream size                 : 194 MiB (6%)
    Title                       : DDP_5.1_Web_Eng
    Language                    : English
    Service kind                : Complete Main
    Default                     : No
    Forced                      : No

    Text #1
    ID                          : 4
    Format                      : UTF-8
    Codec ID                    : S_TEXT/UTF8
    Codec ID/Info               : UTF-8 Plain Text
    Duration                    : 41 min 48 s
    Bit rate                    : 71 b/s
    Count of elements           : 690
    Stream size                 : 21.9 KiB (0%)
    Title                       : Sub_Esp
    Language                    : Spanish
    Default                     : No
    Forced                      : No

    Text #2
    ID                          : 5
    Format                      : UTF-8
    Codec ID                    : S_TEXT/UTF8
    Codec ID/Info               : UTF-8 Plain Text
    Duration                    : 41 min 25 s
    Bit rate                    : 73 b/s
    Count of elements           : 687
    Stream size                 : 22.3 KiB (0%)
    Title                       : Sub_Eng
    Language                    : English
    Default                     : No
    Forced                      : No

  • Peso: 3.10 GiB Aprox. C/U

Sinopsis

Descargar Supergirl (2021) Temporada 06 AMZN Web-DL 1080p Latino. Ultima Temporada De Supergirl. Mientras Brainiac está al borde de la muerte tras intentar detener a Lex Luthor, Supergirl y su equipo van a su rescate, entablando una épica batalla con Gamenmae. Después de derrotar a Leviathan, Supergirl dirige su atención a Lex, que ha utilizado la plataforma Obsidian para lavar el cerebro de medio mundo para amarlo y seguirlo a toda costa, sin importar las cosas horribles que haga.
Al estar consciente de lo peligroso que esto hace a su hermano, Lena recluta a todo el equipo pero Supergirl se da cuenta de que la única manera de detener realmente a Lex es sacrificándose ella misma.

Audio Latino: CinefiloCool
4 Capitulos Disponibles!!!

Ficha técnica

Video trailer de la película

Enlaces de descarga

Rip de Bluray

Descargar Supergirl (2021) Temporada 06 AMZN Web-DL 1080p Latino




Aportes de DPeliculasHDmega la pass es:dpeliculashdmega.org Aportes de CinemaniaHD la pass es:cinemaniahdd.com

Películas relacionadas

Supergirl (2021) Temporada 06 AMZN Web-DL 1080p Latino pelicula full hd, Supergirl (2021) Temporada 06 AMZN Web-DL 1080p Latino mega latino, Supergirl (2021) Temporada 06 AMZN Web-DL 1080p Latino 4k latino, Supergirl (2021) Temporada 06 AMZN Web-DL 1080p Latino pelicula completa, Supergirl (2021) Temporada 06 AMZN Web-DL 1080p Latino descargar gratis, descargar Supergirl (2021) Temporada 06 AMZN Web-DL 1080p Latino pelicula latino, Supergirl (2021) Temporada 06 AMZN Web-DL 1080p Latino 1 link mega, Supergirl (2021) Temporada 06 AMZN Web-DL 1080p Latino 1 link google drive, Supergirl (2021) Temporada 06 AMZN Web-DL 1080p Latino hd 1080p latino.
Comentarios 1
  • Jose_E.T. - 17 abril, 2021

    Muchas gracias por la nueva temporada 😀