Supercan (2007) 1080p Latino

253 vistas
1 estrella2 estrellas3 estrellas4 estrellas5 estrellas (Ninguna valoración todavía)
Cargando…

Información de Supercan (2007) 1080p Latino

Datos de la película

  • Calidad: 1080p
  • Audio: Español Latino AC3 5.1 BLURAY - Ingles AC3 5.1 BLURAY
  • Subtitulos: Español Latino SRT - Ingles SRT
  • Resolución: 1920x800p
  • Formato: MKV
  • Codec: H.264
  • Encoder: CinefiloCool
  • Mediainfo: Clic para Mostrar Datos Ver
  • Supercan (2007) 1080p Latino.mkv
    Format                      : Matroska
    Format version              : Version 4
    File size                   : 2.62 GiB
    Duration                    : 1 h 21 min
    Overall bit rate            : 4 587 kb/s
    Movie name                  : CinemaniaHDD.Net
    Encoded date                : UTC 2019-02-13 02:48:53
    Writing application         : mkvmerge v30.1.0 ('Forever And More') 64-bit
    Writing library             : libebml v1.3.6 + libmatroska v1.4.9

    Video
    ID                          : 1
    Format                      : AVC
    Format/Info                 : Advanced Video Codec
    Format profile              : [email protected]
    Format settings             : CABAC / 5 Ref Frames
    Format settings, CABAC      : Yes
    Format settings, ReFrames   : 5 frames
    Codec ID                    : V_MPEG4/ISO/AVC
    Duration                    : 1 h 21 min
    Bit rate                    : 3 500 kb/s
    Width                       : 1 920 pixels
    Height                      : 800 pixels
    Display aspect ratio        : 2.40:1
    Frame rate mode             : Constant
    Frame rate                  : 23.976 (24000/1001) FPS
    Color space                 : YUV
    Chroma subsampling          : 4:2:0
    Bit depth                   : 8 bits
    Scan type                   : Progressive
    Bits/(Pixel*Frame)          : 0.095
    Stream size                 : 2.00 GiB (76%)
    Title                       : HD1080p [Bluray]
    Writing library             : x264 core 157 r2935 545de2f
    Encoding settings           : cabac=1 / ref=5 / deblock=1:0:0 / analyse=0x3:0x133 / me=umh / subme=9 / psy=1 / psy_rd=1.00:0.00 / mixed_ref=1 / me_range=16 / chroma_me=1 / trellis=2 / 8x8dct=1 / cqm=0 / deadzone=21,11 / fast_pskip=1 / chroma_qp_offset=-2 / threads=25 / lookahead_threads=2 / sliced_threads=0 / nr=0 / decimate=1 / interlaced=0 / bluray_compat=0 / constrained_intra=0 / bframes=3 / b_pyramid=2 / b_adapt=2 / b_bias=0 / direct=3 / weightb=1 / open_gop=0 / weightp=2 / keyint=240 / keyint_min=24 / scenecut=40 / intra_refresh=0 / rc_lookahead=60 / rc=2pass / mbtree=1 / bitrate=3500 / ratetol=1.0 / qcomp=0.60 / qpmin=0 / qpmax=69 / qpstep=4 / cplxblur=20.0 / qblur=0.5 / vbv_maxrate=62500 / vbv_bufsize=78125 / nal_hrd=none / filler=0 / ip_ratio=1.40 / aq=1:1.00
    Default                     : Yes
    Forced                      : Yes
    Color range                 : Limited
    Color primaries             : BT.709
    Transfer characteristics    : BT.709
    Matrix coefficients         : BT.709

    Audio #1
    ID                          : 2
    Format                      : AC-3
    Format/Info                 : Audio Coding 3
    Commercial name             : Dolby Digital
    Codec ID                    : A_AC3
    Duration                    : 1 h 21 min
    Bit rate mode               : Constant
    Bit rate                    : 640 kb/s
    Channel(s)                  : 6 channels
    Channel layout              : L R C LFE Ls Rs
    Sampling rate               : 48.0 kHz
    Frame rate                  : 31.250 FPS (1536 SPF)
    Bit depth                   : 16 bits
    Compression mode            : Lossy
    Stream size                 : 375 MiB (14%)
    Title                       : AC3_5.1_Bluray_Esp
    Language                    : Spanish
    Service kind                : Complete Main
    Default                     : Yes
    Forced                      : Yes

    Audio #2
    ID                          : 3
    Format                      : AC-3
    Format/Info                 : Audio Coding 3
    Commercial name             : Dolby Digital
    Codec ID                    : A_AC3
    Duration                    : 1 h 21 min
    Bit rate mode               : Constant
    Bit rate                    : 448 kb/s
    Channel(s)                  : 6 channels
    Channel layout              : L R C LFE Ls Rs
    Sampling rate               : 48.0 kHz
    Frame rate                  : 31.250 FPS (1536 SPF)
    Bit depth                   : 16 bits
    Compression mode            : Lossy
    Delay relative to video     : -5 ms
    Stream size                 : 262 MiB (10%)
    Title                       : AC3_5.1_Bluray_Eng
    Language                    : English
    Service kind                : Complete Main
    Default                     : No
    Forced                      : No

    Text #1
    ID                          : 4
    Format                      : UTF-8
    Codec ID                    : S_TEXT/UTF8
    Codec ID/Info               : UTF-8 Plain Text
    Duration                    : 1 h 14 min
    Bit rate                    : 0 b/s
    Count of elements           : 13
    Stream size                 : 297 Bytes (0%)
    Title                       : Sub_Forzados
    Language                    : Spanish
    Default                     : Yes
    Forced                      : Yes

    Text #2
    ID                          : 5
    Format                      : UTF-8
    Codec ID                    : S_TEXT/UTF8
    Codec ID/Info               : UTF-8 Plain Text
    Duration                    : 1 h 15 min
    Bit rate                    : 66 b/s
    Count of elements           : 1091
    Stream size                 : 36.7 KiB (0%)
    Title                       : Sub_Esp
    Language                    : Spanish
    Default                     : No
    Forced                      : No

    Text #3
    ID                          : 6
    Format                      : UTF-8
    Codec ID                    : S_TEXT/UTF8
    Codec ID/Info               : UTF-8 Plain Text
    Duration                    : 1 h 17 min
    Bit rate                    : 68 b/s
    Count of elements           : 1165
    Stream size                 : 39.3 KiB (0%)
    Title                       : Sub_Eng
    Language                    : English
    Default                     : No
    Forced                      : No

    Menu
    00:00:00.000                : :Chapter 1
    00:06:12.789                : :Chapter 2
    00:11:36.321                : :Chapter 3
    00:18:06.961                : :Chapter 4
    00:24:50.239                : :Chapter 5
    00:30:08.807                : :Chapter 6
    00:34:12.092                : :Chapter 7
    00:36:56.840                : :Chapter 8
    00:49:09.280                : :Chapter 9
    00:55:27.616                : :Chapter 10
    01:08:33.693                : :Chapter 11
    01:15:26.147                : :Chapter 12
    01:21:48.779                : :Chapter 13

  • Peso: 2.62 GiB

Sinopsis

Descargar Supercan (2007) 1080p Latino, Mega, Google Drive Torrent. Basada en la serie clásica de dibujos animados “Underdog”. Tras un accidente en el misterioso laboratorio del científico chiflado, el Dr. Simon Barsinister (Peter Dinklage), un perro de raza beagle descubre de repente que tiene unos poderes inimaginables además de la capacidad de hablar. Ataviado con un traje de superhéroe, Superdog (voz original de Jason Lee) jura proteger a los atormentados ciudadanos de Capitol City y, en especial, a una bonita spaniel llamada Polly Purebread (voz de Amy Adams). Cuando un siniestro plan de Barsinister y su secuaz Cad (Patrick Warburton) amenaza con destruir Capitol City, sólo Superdog puede arreglar las cosas…

Ficha técnica

Video trailer de la película

Enlaces de descarga

Rip de Bluray

Descargar Supercan (2007) 1080p Latino




Aportes de DPeliculasHDmega la pass es:dpeliculashdmega.org Aportes de CinemaniaHD la pass es:cinemaniahdd.com

Películas relacionadas

  • Yo, robot (2004) REMUX (Open Matte) 1080p Latino

    2004
    Yo, robot (2004) REMUX (Open Matte) 1080p Latino

    3.7 2h 3m 2004

    En el año 2035, los robots son unos dispositivos que usamos todos los días y en quienes confiamos,...

    Director: Tracey Poirier

    Género: Acción

    Actores: Will Smith

  • Man On A Ledge (2012) REMUX (Open Matte) 1080P Latino

    2012
    Man On A Ledge (2012) REMUX (Open Matte) 1080P Latino

    0.0 1h 42m 2012

    Nick Cassidy (Sam Worthington), un antiguo agente de policía, se escapa de la cárcel y se dirige al...

    Director: Melissa Kalbfus

    Género: Acción

    Actores: William Sadler

  • El secreto de mi éxito (1987) REMUX 1080p Latino

    1987
    El secreto de mi éxito (1987) REMUX 1080p Latino

    0.0 1h 40m 1987

    Brantley Foster, un educado chico de Arkansas que acaba de licenciarse, ha soñado siempre con triunfar...

    Director: Herbert Ross

    Género: Comedia

    Actores: Richard Jordan

  • Samantha! (2019) Temporada 1 y 2 NF 1080p Latino

    2018
    Samantha! (2019) Temporada 1 y 2 NF 1080p Latino

    0.0 0h 28m 2018

    Samantha, una estrella infantil en la década de los 80, se aferra a los límites de la celebridad con...

    Director: Felipe Braga

    Género: Comedia

    Actores: Sidney Alexandre

Comentarios 0