×

¿Problemas para descargar con Mozilla, EDGE? Deshabilita la opción "Abrir vinculos en una pestaña nueva" tal como lo muestra ésta imagen.

Super… ¿quién? (2021) PLACEBO Full HD 1080p Latino

66 vistas

Información de Super… ¿quién? (2021) PLACEBO Full HD 1080p Latino

Datos de la película

  • Calidad: Full 1080p
  • Audio: Se especifica abajo de la Sinopsis
  • Subtitulos: Español Latino SRT- FORZADOS SRT
  • Resolución: 1920x1080p
  • Formato: MKV
  • Codec: H.264
  • Encoder: Melkor
  • Mediainfo: Clic para Mostrar Datos Ver
  • Super... Quien (2021) PLACEBO 1080p Latino.mkv
    Format                      : Matroska
    Format version              : Version 4
    File size                   : 3.74 GiB
    Duration                    : 1 h 22 min
    Overall bit rate            : 6 497 kb/s
    Movie name                  : Super Hero Malgre Lui (2021) CinemaniaHDD.Net
    Encoded date                : UTC 2022-12-01 21:13:46
    Writing application         : mkvmerge v56.1.0 ('My Friend') 64-bit
    Writing library             : libebml v1.4.2 + libmatroska v1.6.4
    Attachments                 : CINEMANIAHD.png

    Video
    ID                          : 1
    Format                      : AVC
    Format/Info                 : Advanced Video Codec
    Format profile              : High@L4.1
    Format settings             : CABAC / 4 Ref Frames
    Format settings, CABAC      : Yes
    Format settings, Reference  : 4 frames
    Codec ID                    : V_MPEG4/ISO/AVC
    Duration                    : 1 h 22 min
    Bit rate                    : 4 525 kb/s
    Width                       : 1 920 pixels
    Height                      : 1 080 pixels
    Display aspect ratio        : 16:9
    Frame rate mode             : Constant
    Frame rate                  : 24.000 FPS
    Color space                 : YUV
    Chroma subsampling          : 4:2:0
    Bit depth                   : 8 bits
    Scan type                   : Progressive
    Bits/(Pixel*Frame)          : 0.091
    Stream size                 : 2.60 GiB (70%)
    Title                       : Full HD1080p [CinemaniaHDD]
    Writing library             : x264 core 163 r3059 b684ebe0
    Encoding settings           : cabac=1 / ref=4 / deblock=1:0:0 / analyse=0x3:0x133 / me=tesa / subme=11 / psy=1 / psy_rd=1.00:0.00 / mixed_ref=1 / me_range=24 / chroma_me=1 / trellis=2 / 8x8dct=1 / cqm=0 / deadzone=21,11 / fast_pskip=0 / chroma_qp_offset=-2 / threads=24 / lookahead_threads=6 / sliced_threads=0 / nr=0 / decimate=1 / interlaced=0 / bluray_compat=0 / constrained_intra=0 / bframes=16 / b_pyramid=2 / b_adapt=2 / b_bias=0 / direct=3 / weightb=1 / open_gop=0 / weightp=2 / keyint=240 / keyint_min=24 / scenecut=40 / intra_refresh=0 / rc_lookahead=60 / rc=crf / mbtree=1 / crf=19.0 / qcomp=0.60 / qpmin=0 / qpmax=69 / qpstep=4 / vbv_maxrate=62500 / vbv_bufsize=78125 / crf_max=0.0 / nal_hrd=none / filler=0 / ip_ratio=1.40 / aq=1:1.00
    Default                     : Yes
    Forced                      : Yes
    Color range                 : Limited
    Color primaries             : BT.709
    Transfer characteristics    : BT.709
    Matrix coefficients         : BT.709

    Audio #1
    ID                          : 2
    Format                      : AC-3
    Format/Info                 : Audio Coding 3
    Commercial name             : Dolby Digital
    Codec ID                    : A_AC3
    Duration                    : 1 h 22 min
    Bit rate mode               : Constant
    Bit rate                    : 448 kb/s
    Channel(s)                  : 6 channels
    Channel layout              : L R C LFE Ls Rs
    Sampling rate               : 48.0 kHz
    Frame rate                  : 31.250 FPS (1536 SPF)
    Compression mode            : Lossy
    Stream size                 : 264 MiB (7%)
    Title                       : Español Latino [CinemaniaHDD]
    Language                    : Spanish
    Service kind                : Complete Main
    Default                     : Yes
    Forced                      : Yes

    Audio #2
    ID                          : 3
    Format                      : DTS
    Format/Info                 : Digital Theater Systems
    Codec ID                    : A_DTS
    Duration                    : 1 h 22 min
    Bit rate mode               : Constant
    Bit rate                    : 1 509 kb/s
    Channel(s)                  : 6 channels
    Channel layout              : C L R Ls Rs LFE
    Sampling rate               : 48.0 kHz
    Frame rate                  : 93.750 FPS (512 SPF)
    Bit depth                   : 24 bits
    Compression mode            : Lossy
    Stream size                 : 889 MiB (23%)
    Title                       : Frances [CinemaniaHDD]
    Language                    : French
    Default                     : No
    Forced                      : No

    Text #1
    ID                          : 4
    Format                      : UTF-8
    Codec ID                    : S_TEXT/UTF8
    Codec ID/Info               : UTF-8 Plain Text
    Duration                    : 48 s 792 ms
    Bit rate                    : 3 b/s
    Count of elements           : 2
    Stream size                 : 24.0 Bytes (0%)
    Title                       : Forzados-SRT [CinemaniaHDD]
    Language                    : Spanish
    Default                     : Yes
    Forced                      : Yes

    Text #2
    ID                          : 5
    Format                      : UTF-8
    Codec ID                    : S_TEXT/UTF8
    Codec ID/Info               : UTF-8 Plain Text
    Duration                    : 1 h 16 min
    Bit rate                    : 48 b/s
    Count of elements           : 969
    Stream size                 : 27.0 KiB (0%)
    Title                       : Español-SRT [CinemaniaHDD]
    Language                    : Spanish
    Default                     : No
    Forced                      : No

    Text #3
    ID                          : 6
    ID in the original source m : 4608 (0x1200)
    Format                      : PGS
    Muxing mode                 : zlib
    Codec ID                    : S_HDMV/PGS
    Codec ID/Info               : Picture based subtitle format used on BDs/HD-DVDs
    Duration                    : 1 h 22 min
    Bit rate                    : 33.8 kb/s
    Count of elements           : 2505
    Stream size                 : 19.8 MiB (1%)
    Title                       : Frances [CinemaniaHDD]
    Language                    : French
    Default                     : No
    Forced                      : No
    Original source medium      : Blu-ray

    Menu
    00:00:00.000                : Chapter 01
    00:06:33.291                : Chapter 02
    00:13:30.541                : Chapter 03
    00:20:53.791                : Chapter 04
    00:32:05.833                : Chapter 05
    00:37:02.666                : Chapter 06
    00:42:30.833                : Chapter 07
    00:48:20.541                : Chapter 08
    00:54:59.708                : Chapter 09
    01:02:49.000                : Chapter 10
    01:10:47.083                : Chapter 11
    01:18:04.625                : Chapter 12

  • Peso: 3.74 GiB

Sinopsis

Descargar Super… ¿quién? (2021) PLACEBO Full HD 1080p Latino. Cedric (Philippe Lacheau) intenta ganarse la vida como actor, pero parece destinado al fracaso. No tiene dinero y su novia le ha dejado. Su padre, su hermana y sus mejores amigos tampoco dan un duro por él. Hasta que por fin consigue un papel protagonista: el del superhéroe «Badman». Se le presenta la oportunidad de salir de un pozo de desgracias y ganarse de nuevo el respeto de su padre. ¡Pero el destino tiene otros planes! Un día Cedric se marcha del rodaje a toda prisa sin quitarse el traje de superhéroe y tiene un accidente de tráfico. Se despierta con amnesia, convencido de que es un superhéroe y cree que tiene una misión. ¿Tiene lo que hay que tener para plantarle cara al mal, defender a los débiles y acabar con los malos? Uno no se convierte en héroe, y mucho menos en superhéroe, de la noche a la mañana… ¡Sobre todo alguien como Cedric!

Español Latino AC3 5.1 – Frances DTS 5.1

Ficha técnica

Video trailer de la película

Enlaces de descarga

Rip de Bluray

Descargar Super… ¿quién? (2021) PLACEBO Full HD 1080p Latino




Aportes de DPeliculasHDmega la pass es:dpeliculashdmega.org Aportes de CinemaniaHD la pass es:cinemaniahdd.com

Películas relacionadas

descargar Super… ¿quién? (2021) PLACEBO Full HD 1080p Latino Full 1080p 1080p gratis, Super… ¿quién? (2021) PLACEBO Full HD 1080p Latino Full 1080p mega 1 link, Super… ¿quién? (2021) PLACEBO Full HD 1080p Latino Full 1080p pelicula completa, descargar Super… ¿quién? (2021) PLACEBO Full HD 1080p Latino Full 1080p gratis en mega.

Super… ¿quién? (2021) PLACEBO Full HD 1080p Latino pelicula full hd, Super… ¿quién? (2021) PLACEBO Full HD 1080p Latino mega latino, Super… ¿quién? (2021) PLACEBO Full HD 1080p Latino 4k latino, Super… ¿quién? (2021) PLACEBO Full HD 1080p Latino pelicula completa, Super… ¿quién? (2021) PLACEBO Full HD 1080p Latino descargar gratis, descargar Super… ¿quién? (2021) PLACEBO Full HD 1080p Latino pelicula latino, Super… ¿quién? (2021) PLACEBO Full HD 1080p Latino 1 link mega, Super… ¿quién? (2021) PLACEBO Full HD 1080p Latino 1 link google drive, Super… ¿quién? (2021) PLACEBO Full HD 1080p Latino hd 1080p latino.
Comentarios 0