×

¿Problemas para descargar con Mozilla, EDGE? Deshabilita la opción "Abrir vinculos en una pestaña nueva" tal como lo muestra ésta imagen.

Super Mario Bros. La película (2023) REMUX 1080p Latino

371 vistas

Información de Super Mario Bros. La película (2023) REMUX 1080p Latino

Datos de la película

  • Calidad: Full 1080p
  • Audio: Se especifica abajo de la Sinopsis
  • Subtitulos: Español Latino PGS - Ingles PGS
  • Resolución: 1920x1080p
  • Formato: MKV
  • Codec: H.264
  • Encoder: Melkor
  • Mediainfo: Clic para Mostrar Datos Ver
  • Super Mario Bros. La Pelicula (2023) REMUX 1080p Latino.mkv
    Format                      : Matroska
    Format version              : Version 4
    File size                   : 22.2 GiB
    Duration                    : 1 h 32 min
    Overall bit rate mode       : Variable
    Overall bit rate            : 34.4 Mb/s
    Movie name                  : The Super Mario Bros Movie (2023)  CinemaniaHDD.Net
    Encoded date                : UTC 2023-05-31 19:57:50
    Writing application         : mkvmerge v56.1.0 ('My Friend') 64-bit
    Writing library             : libebml v1.4.2 + libmatroska v1.6.4
    Cover                       : Yes
    Attachments                 : CINEMANIAHD.png / cover.jpg
    Site                        : CinemaniaHDD.Net
    Uploader                    : Melkor

    Video
    ID                          : 1
    ID in the original source m : 4113 (0x1011)
    Format                      : AVC
    Format/Info                 : Advanced Video Codec
    Format profile              : High@L4.1
    Format settings             : CABAC / 2 Ref Frames
    Format settings, CABAC      : Yes
    Format settings, Reference  : 2 frames
    Codec ID                    : V_MPEG4/ISO/AVC
    Duration                    : 1 h 32 min
    Bit rate mode               : Variable
    Bit rate                    : 29.8 Mb/s
    Width                       : 1 920 pixels
    Height                      : 1 080 pixels
    Display aspect ratio        : 16:9
    Frame rate mode             : Constant
    Frame rate                  : 23.976 (24000/1001) FPS
    Color space                 : YUV
    Chroma subsampling          : 4:2:0
    Bit depth                   : 8 bits
    Scan type                   : Progressive
    Bits/(Pixel*Frame)          : 0.600
    Stream size                 : 19.2 GiB (87%)
    Title                       : REMUX HD1080p [CinemaniaHDD]
    Default                     : Yes
    Forced                      : Yes
    Original source medium      : Blu-ray

    Audio #1
    ID                          : 2
    ID in the original source m : 4353 (0x1101)
    Format                      : E-AC-3
    Format/Info                 : Enhanced AC-3
    Commercial name             : Dolby Digital Plus
    Format profile              : Blu-ray Disc
    Codec ID                    : A_EAC3
    Duration                    : 1 h 32 min
    Bit rate mode               : Constant
    Bit rate                    : 768 kb/s
    Channel(s)                  : 8 channels
    Channel layout              : L R C LFE Ls Rs Lb Rb
    Sampling rate               : 48.0 kHz
    Frame rate                  : 31.250 FPS (1536 SPF)
    Compression mode            : Lossy
    Stream size                 : 508 MiB (2%)
    Title                       : Español Latino DDP [CinemaniaHDD]
    Language                    : Spanish
    Service kind                : Complete Main
    Default                     : No
    Forced                      : No
    Original source medium      : Blu-ray

    Audio #2
    ID                          : 3
    ID in the original source m : 4352 (0x1100)
    Format                      : MLP FBA 16-ch
    Format/Info                 : Meridian Lossless Packing FBA with 16-channel presentation
    Commercial name             : Dolby TrueHD with Dolby Atmos
    Codec ID                    : A_TRUEHD
    Duration                    : 1 h 32 min
    Bit rate mode               : Variable
    Bit rate                    : 2 912 kb/s
    Maximum bit rate            : 3 894 kb/s
    Channel(s)                  : 8 channels
    Channel layout              : L R C LFE Ls Rs Lb Rb
    Sampling rate               : 48.0 kHz
    Frame rate                  : 1 200.000 FPS (40 SPF)
    Compression mode            : Lossless
    Stream size                 : 1.88 GiB (8%)
    Title                       : Ingles THD[CinemaniaHDD]
    Language                    : English
    Default                     : No
    Forced                      : No
    Original source medium      : Blu-ray
    Number of dynamic objects   : 11
    Bed channel count           : 1 channel
    Bed channel configuration   : LFE

    Audio #3
    ID                          : 4
    Format                      : AC-3
    Format/Info                 : Audio Coding 3
    Commercial name             : Dolby Digital
    Codec ID                    : A_AC3
    Duration                    : 1 h 32 min
    Bit rate mode               : Constant
    Bit rate                    : 384 kb/s
    Channel(s)                  : 6 channels
    Channel layout              : L R C LFE Ls Rs
    Sampling rate               : 48.0 kHz
    Frame rate                  : 31.250 FPS (1536 SPF)
    Compression mode            : Lossy
    Delay relative to video     : 5 ms
    Stream size                 : 254 MiB (1%)
    Title                       : Español Latino AC3 [CinemaniaHDD]
    Language                    : Spanish
    Service kind                : Complete Main
    Default                     : Yes
    Forced                      : Yes

    Audio #4
    ID                          : 5
    ID in the original source m : 4352 (0x1100)
    Format                      : AC-3
    Format/Info                 : Audio Coding 3
    Commercial name             : Dolby Digital
    Codec ID                    : A_AC3
    Duration                    : 1 h 32 min
    Bit rate mode               : Constant
    Bit rate                    : 448 kb/s
    Channel(s)                  : 6 channels
    Channel layout              : L R C LFE Ls Rs
    Sampling rate               : 48.0 kHz
    Frame rate                  : 31.250 FPS (1536 SPF)
    Compression mode            : Lossy
    Stream size                 : 296 MiB (1%)
    Title                       : Ingles AC3 [CinemaniaHDD]
    Language                    : English
    Service kind                : Complete Main
    Default                     : No
    Forced                      : No
    Original source medium      : Blu-ray

    Text #1
    ID                          : 6
    ID in the original source m : 4615 (0x1207)
    Format                      : PGS
    Muxing mode                 : zlib
    Codec ID                    : S_HDMV/PGS
    Codec ID/Info               : Picture based subtitle format used on BDs/HD-DVDs
    Duration                    : 1 h 27 min
    Bit rate                    : 396 b/s
    Count of elements           : 18
    Stream size                 : 254 KiB (0%)
    Title                       : Forzados-PGS [CinemaniaHDD]
    Language                    : Spanish
    Default                     : No
    Forced                      : No
    Original source medium      : Blu-ray

    Text #2
    ID                          : 7
    ID in the original source m : 4609 (0x1201)
    Format                      : PGS
    Muxing mode                 : zlib
    Codec ID                    : S_HDMV/PGS
    Codec ID/Info               : Picture based subtitle format used on BDs/HD-DVDs
    Duration                    : 1 h 30 min
    Bit rate                    : 22.9 kb/s
    Count of elements           : 1686
    Stream size                 : 14.7 MiB (0%)
    Title                       : Español-PGS [CinemaniaHDD]
    Language                    : Spanish
    Default                     : No
    Forced                      : No
    Original source medium      : Blu-ray

    Text #3
    ID                          : 8
    ID in the original source m : 4608 (0x1200)
    Format                      : PGS
    Muxing mode                 : zlib
    Codec ID                    : S_HDMV/PGS
    Codec ID/Info               : Picture based subtitle format used on BDs/HD-DVDs
    Duration                    : 1 h 32 min
    Bit rate                    : 34.8 kb/s
    Count of elements           : 2774
    Stream size                 : 22.9 MiB (0%)
    Title                       : Ingles-PGS [CinemaniaHDD]
    Language                    : English
    Default                     : No
    Forced                      : No
    Original source medium      : Blu-ray

    Text #4
    ID                          : 9
    Format                      : UTF-8
    Codec ID                    : S_TEXT/UTF8
    Codec ID/Info               : UTF-8 Plain Text
    Duration                    : 1 h 26 min
    Bit rate                    : 0 b/s
    Count of elements           : 8
    Stream size                 : 303 Bytes (0%)
    Title                       : Forzados-SRT [CinemaniaHDD]
    Language                    : Spanish
    Default                     : Yes
    Forced                      : Yes

    Text #5
    ID                          : 10
    Format                      : UTF-8
    Codec ID                    : S_TEXT/UTF8
    Codec ID/Info               : UTF-8 Plain Text
    Duration                    : 1 h 30 min
    Bit rate                    : 33 b/s
    Count of elements           : 839
    Stream size                 : 22.0 KiB (0%)
    Title                       : Español-SRT [CinemaniaHDD]
    Language                    : Spanish
    Default                     : No
    Forced                      : No

    Menu
    00:00:00.000                : Chapter 01
    00:04:44.993                : Chapter 02
    00:08:37.850                : Chapter 03
    00:13:35.815                : Chapter 04
    00:17:10.863                : Chapter 05
    00:21:42.384                : Chapter 06
    00:27:16.134                : Chapter 07
    00:31:59.709                : Chapter 08
    00:34:35.323                : Chapter 09
    00:38:35.479                : Chapter 10
    00:42:58.701                : Chapter 11
    00:46:43.550                : Chapter 12
    00:52:28.019                : Chapter 13
    00:57:34.784                : Chapter 14
    01:02:33.624                : Chapter 15
    01:08:17.093                : Chapter 16
    01:15:18.138                : Chapter 17
    01:18:24.324                : Chapter 18
    01:23:22.706                : Chapter 19
    01:26:59.047                : Chapter 20

  • Peso: 22.2 GiB

Sinopsis

Super Mario Bros. La película (2023) REMUX 1080p Latino.  Mientras trabajan en una avería subterránea, los fontaneros de Brooklyn, Mario y su hermano Luigi, viajan por una misteriosa tubería hasta un nuevo mundo mágico. Pero, cuando los hermanos se separan, Mario deberá emprender una épica misión para encontrar a Luigi.

Español Latino EAC3 7.1 & Core AC3 5.1 BD – Ingles THD 7.1 & Core AC3 5.1 BD

Ficha técnica

Video trailer de la película

Enlaces de descarga

Rip de Bluray

Descargar Super Mario Bros. La película (2023) REMUX 1080p Latino




Aportes de DPeliculasHDmega la pass es:dpeliculashdmega.org Aportes de CinemaniaHD la pass es:cinemaniahdd.com Aportes recientes:cinemaniahdd.net
Guardado en : Adventure , Animation , Comedy , Family , Fantasy , Remux

Películas relacionadas

  • En llamas (2023) REMUX 1080p Latino

    En llamas (2023) REMUX 1080p Latino

    2023
    En llamas (2023) REMUX 1080p Latino

    1h 17m 2023

    Descargar En llamas (2023) REMUX 1080p Latino. Una familia vive en una casa rodante en el bosque y de...

    Director: Peter Facinelli

    Género: Acción

    Actores: Ross McCall

  • Antes de conocernos (2023) REMUX 1080p Latino

    Antes de conocernos (2023) REMUX 1080p Latino

    2023
    Antes de conocernos (2023) REMUX 1080p Latino

    1h 38m 2023

    Descargar Antes de conocernos (2023) REMUX 1080p Latino. Jane y Will, dos adultos jóvenes, dedican tiempo...

    Director: Peter Hutchings

    Género: Comedia

    Actores: Ward Horton

  • Lazos De Vida (2023) REMUX 1080p Latino

    Lazos De Vida (2023) REMUX 1080p Latino

    2023
    Lazos De Vida (2023) REMUX 1080p Latino

    1h 50m 2023

    Descargar Lazos De Vida (2023) REMUX 1080p Latino. Un joven corredor de bolsa británico, Nicholas "Nicky"...

    Director: Nick Laurence

    Género: Bélica

    Actores: Ziggy Heath

  • Malicious (2023) REMUX 1080p Latino

    Malicious (2023) REMUX 1080p Latino

    2023
    Malicious (2023) REMUX 1080p Latino

    1h 31m 2023

    Descargar Malicious (2023) REMUX 1080p Latino. El gobernador William McCabe, su mujer y su hija deciden...

    Director: John Fallon

    Género: Crimen

    Actores: Nick Baillie

descargar Super Mario Bros. La película (2023) REMUX 1080p Latino Full 1080p 1080p gratis, Super Mario Bros. La película (2023) REMUX 1080p Latino Full 1080p mega 1 link, Super Mario Bros. La película (2023) REMUX 1080p Latino Full 1080p pelicula completa, descargar Super Mario Bros. La película (2023) REMUX 1080p Latino Full 1080p gratis en mega.

Super Mario Bros. La película (2023) REMUX 1080p Latino pelicula full hd, Super Mario Bros. La película (2023) REMUX 1080p Latino mega latino, Super Mario Bros. La película (2023) REMUX 1080p Latino 4k latino, Super Mario Bros. La película (2023) REMUX 1080p Latino pelicula completa, Super Mario Bros. La película (2023) REMUX 1080p Latino descargar gratis, descargar Super Mario Bros. La película (2023) REMUX 1080p Latino pelicula latino, Super Mario Bros. La película (2023) REMUX 1080p Latino 1 link mega, Super Mario Bros. La película (2023) REMUX 1080p Latino 1 link google drive, Super Mario Bros. La película (2023) REMUX 1080p Latino hd 1080p latino.
Comentarios 0