×

¿Problemas para descargar con Mozilla, EDGE? Deshabilita la opción "Abrir vinculos en una pestaña nueva" tal como lo muestra ésta imagen.

Super Mario Bros. La película (2023) HD 1080p Latino

395 vistas

Información de Super Mario Bros. La película (2023) HD 1080p Latino

Datos de la película

  • Calidad: 1080p
  • Audio: Español Latino AC3 5.1 WEB-DL - Ingles AC3 5.1 BLURAY
  • Subtitulos: Español Latino SRT- FORZADOS SRT
  • Resolución: 1920x804p
  • Formato: MKV
  • Codec: H.264
  • Encoder: Melkor | MTeam
  • Mediainfo: Clic para Mostrar Datos Ver
  • Super Mario Bros. La Pelicula (2023) HD1080p Latino.mkv
    Format                      : Matroska
    Format version              : Version 4
    File size                   : 2.74 GiB
    Duration                    : 1 h 32 min
    Overall bit rate            : 4 249 kb/s
    Movie name                  : The Super Mario Bros Movie (2023) CinemaniaHDD.Net
    Encoded date                : UTC 2023-05-27 21:07:33
    Writing application         : mkvmerge v56.1.0 ('My Friend') 64-bit
    Writing library             : libebml v1.4.2 + libmatroska v1.6.4
    Site                        : CinemaniaHDD.Net
    Uploader                    : Melkor

    Video
    ID                          : 1
    Format                      : AVC
    Format/Info                 : Advanced Video Codec
    Format profile              : High@L4.1
    Format settings             : CABAC / 5 Ref Frames
    Format settings, CABAC      : Yes
    Format settings, Reference  : 5 frames
    Codec ID                    : V_MPEG4/ISO/AVC
    Duration                    : 1 h 32 min
    Bit rate                    : 3 500 kb/s
    Width                       : 1 920 pixels
    Height                      : 804 pixels
    Display aspect ratio        : 2.40:1
    Frame rate mode             : Constant
    Frame rate                  : 23.976 (24000/1001) FPS
    Color space                 : YUV
    Chroma subsampling          : 4:2:0
    Bit depth                   : 8 bits
    Scan type                   : Progressive
    Bits/(Pixel*Frame)          : 0.095
    Stream size                 : 2.20 GiB (80%)
    Title                       : HD1080p [CinemaniaHDD]
    Writing library             : x264 core 163 r3059 b684ebe0
    Encoding settings           : cabac=1 / ref=5 / deblock=1:1:1 / analyse=0x3:0x133 / me=umh / subme=9 / psy=1 / psy_rd=0.40:0.00 / mixed_ref=1 / me_range=16 / chroma_me=1 / trellis=2 / 8x8dct=1 / cqm=0 / deadzone=21,11 / fast_pskip=1 / chroma_qp_offset=-2 / threads=24 / lookahead_threads=2 / sliced_threads=0 / nr=0 / decimate=1 / interlaced=0 / bluray_compat=0 / constrained_intra=0 / bframes=5 / b_pyramid=2 / b_adapt=2 / b_bias=0 / direct=3 / weightb=1 / open_gop=0 / weightp=2 / keyint=240 / keyint_min=24 / scenecut=40 / intra_refresh=0 / rc_lookahead=60 / rc=abr / mbtree=1 / bitrate=3500 / ratetol=1.0 / qcomp=0.60 / qpmin=0 / qpmax=69 / qpstep=4 / vbv_maxrate=62500 / vbv_bufsize=78125 / nal_hrd=none / filler=0 / ip_ratio=1.40 / aq=1:0.60
    Default                     : Yes
    Forced                      : Yes
    Color range                 : Limited
    Color primaries             : BT.709
    Transfer characteristics    : BT.709
    Matrix coefficients         : BT.709

    Audio #1
    ID                          : 2
    Format                      : AC-3
    Format/Info                 : Audio Coding 3
    Commercial name             : Dolby Digital
    Codec ID                    : A_AC3
    Duration                    : 1 h 32 min
    Bit rate mode               : Constant
    Bit rate                    : 384 kb/s
    Channel(s)                  : 6 channels
    Channel layout              : L R C LFE Ls Rs
    Sampling rate               : 48.0 kHz
    Frame rate                  : 31.250 FPS (1536 SPF)
    Compression mode            : Lossy
    Stream size                 : 254 MiB (9%)
    Title                       : Español Latino [CinemaniaHDD]
    Language                    : Spanish
    Service kind                : Complete Main
    Default                     : Yes
    Forced                      : Yes

    Audio #2
    ID                          : 3
    Format                      : AC-3
    Format/Info                 : Audio Coding 3
    Commercial name             : Dolby Digital
    Codec ID                    : A_AC3
    Duration                    : 1 h 32 min
    Bit rate mode               : Constant
    Bit rate                    : 448 kb/s
    Channel(s)                  : 6 channels
    Channel layout              : L R C LFE Ls Rs
    Sampling rate               : 48.0 kHz
    Frame rate                  : 31.250 FPS (1536 SPF)
    Compression mode            : Lossy
    Delay relative to video     : -5 ms
    Stream size                 : 296 MiB (11%)
    Title                       : Ingles [CinemaniaHDD]
    Language                    : English
    Service kind                : Complete Main
    Default                     : No
    Forced                      : No

    Text #1
    ID                          : 4
    Format                      : UTF-8
    Codec ID                    : S_TEXT/UTF8
    Codec ID/Info               : UTF-8 Plain Text
    Duration                    : 1 h 26 min
    Bit rate                    : 0 b/s
    Count of elements           : 8
    Stream size                 : 303 Bytes (0%)
    Title                       : Forzados-SRT [CinemaniaHDD]
    Language                    : Spanish
    Default                     : Yes
    Forced                      : Yes

    Text #2
    ID                          : 5
    Format                      : UTF-8
    Codec ID                    : S_TEXT/UTF8
    Codec ID/Info               : UTF-8 Plain Text
    Duration                    : 1 h 30 min
    Bit rate                    : 33 b/s
    Count of elements           : 839
    Stream size                 : 22.0 KiB (0%)
    Title                       : Español-SRT [CinemaniaHDD]
    Language                    : Spanish
    Default                     : No
    Forced                      : No

    Text #3
    ID                          : 6
    Format                      : UTF-8
    Codec ID                    : S_TEXT/UTF8
    Codec ID/Info               : UTF-8 Plain Text
    Duration                    : 1 h 31 min
    Bit rate                    : 35 b/s
    Count of elements           : 989
    Stream size                 : 23.7 KiB (0%)
    Title                       : Ingles [CinemaniaHDD]
    Language                    : English
    Default                     : No
    Forced                      : No

    Menu
    00:00:00.000                : Chapter 01
    00:04:44.993                : Chapter 02
    00:08:37.851                : Chapter 03
    00:13:35.815                : Chapter 04
    00:17:10.863                : Chapter 05
    00:21:42.384                : Chapter 06
    00:27:16.134                : Chapter 07
    00:31:59.709                : Chapter 08
    00:34:35.323                : Chapter 09
    00:38:35.480                : Chapter 10
    00:42:58.701                : Chapter 11
    00:46:43.551                : Chapter 12
    00:52:28.020                : Chapter 13
    00:57:34.785                : Chapter 14
    01:02:33.625                : Chapter 15
    01:08:17.093                : Chapter 16
    01:15:18.139                : Chapter 17
    01:18:24.325                : Chapter 18
    01:23:22.706                : Chapter 19
    01:26:59.047                : Chapter 20
    Super Mario Bros La Pelicula (2023) BDRip 1080p Latino[CMHDD].mkv
    File size                   : 12.0 GiB
    Duration                    : 1 h 32 min
    Movie name                  : The Super Mario Bros Movie (2023) CinemaniaHDD.Net
    Site                        : CinemaniaHDD.Net
    Uploader                    : Melkor
    Video
    Format                      : AVC x264 High@L4.1
    Bit rate                    : 14.8 Mb/s
    Width                       : 1 920 pixels
    Height                      : 804 pixels
    Frame rate                  : 23.976 (24000/1001) FPS
    Audio #1
    Format                      : AC-3
    Bit rate                    : 384 kb/s
    Channel(s)                  : 6 channels
    Sampling rate               : 48.0 kHz
    Title                       : Español Latino [CinemaniaHDD]
    Language                    : Spanish
    Audio #2
    Format                      : MLP FBA 16-ch
    Bit rate                    : 2 912 kb/s
    Channel(s)                  : 8 channels
    Sampling rate               : 48.0 kHz
    Title                       : Ingles [CinemaniaHDD]
    Language                    : English
    Audio #3
    Format                      : AC-3
    Bit rate                    : 448 kb/s
    Channel(s)                  : 6 channels
    Sampling rate               : 48.0 kHz
    Title                       : Ingles-AC3 [CinemaniaHDD]
    Language                    : English
    Subtitulos: Yes (SRT)
    Chapters: Yes

  • Peso: 2.74 GiB | 12.0 GiB

Sinopsis

Descargar Super Mario Bros. La película (2023) HD 1080p Latino. Mientras trabajan en una avería subterránea, los fontaneros de Brooklyn, Mario y su hermano Luigi, viajan por una misteriosa tubería hasta un nuevo mundo mágico. Pero, cuando los hermanos se separan, Mario deberá emprender una épica misión para encontrar a Luigi.

Español Latino AC3 5.1 Web – Ingles THD 7.1 & & AC3 5.1 BD

Nota: Version Ligera & Pesada!!!

Ficha técnica

Video trailer de la película

Enlaces de descarga

Rip de Bluray

Descargar Super Mario Bros. La película (2023) HD 1080p Latino




Aportes de DPeliculasHDmega la pass es:dpeliculashdmega.org Aportes de CinemaniaHD la pass es:cinemaniahdd.com Aportes recientes:cinemaniahdd.net

Películas relacionadas

descargar Super Mario Bros. La película (2023) HD 1080p Latino 1080p 1080p gratis, Super Mario Bros. La película (2023) HD 1080p Latino 1080p mega 1 link, Super Mario Bros. La película (2023) HD 1080p Latino 1080p pelicula completa, descargar Super Mario Bros. La película (2023) HD 1080p Latino 1080p gratis en mega.

Super Mario Bros. La película (2023) HD 1080p Latino pelicula full hd, Super Mario Bros. La película (2023) HD 1080p Latino mega latino, Super Mario Bros. La película (2023) HD 1080p Latino 4k latino, Super Mario Bros. La película (2023) HD 1080p Latino pelicula completa, Super Mario Bros. La película (2023) HD 1080p Latino descargar gratis, descargar Super Mario Bros. La película (2023) HD 1080p Latino pelicula latino, Super Mario Bros. La película (2023) HD 1080p Latino 1 link mega, Super Mario Bros. La película (2023) HD 1080p Latino 1 link google drive, Super Mario Bros. La película (2023) HD 1080p Latino hd 1080p latino.
Comentarios 0