×

¿Problemas para descargar con Mozilla, EDGE? Deshabilita la opción "Abrir vinculos en una pestaña nueva" tal como lo muestra ésta imagen.

Super Heists (2021) Temporada 1 WEB-DL 1080p Latino

25 vistas

Información de Super Heists (2021) Temporada 1 WEB-DL 1080p Latino

Datos de la película

  • Calidad: 1080p
  • Audio: Español Latino AC3 2.0 WEB-DL - Ingles AC3 2.0 WEB-DL
  • Subtitulos: No
  • Resolución: 1920x1080
  • Formato: MKV
  • Codec: H.264
  • Encoder: cinemaniahdd
  • Mediainfo: Clic para Mostrar Datos Ver
  • Super Heists T01E01 WEB-DL 1080p Latino [CNMNHDD].mkv
    Format                      : Matroska
    Format version              : Version 4
    File size                   : 2.03 GiB
    Duration                    : 43 min 1 s
    Overall bit rate mode       : Constant
    Overall bit rate            : 6 757 kb/s
    Movie name                  : Robos impresionantes S01E01 - Todo el dinero del presidente [1080p] - CinemaniaHDD.Net
    Encoded date                : UTC 2022-11-12 01:23:02
    Writing application         : mkvmerge v56.1.0 ('My Friend') 64-bit
    Writing library             : libebml v1.4.2 + libmatroska v1.6.4

    Video
    ID                          : 1
    Format                      : AVC
    Format/Info                 : Advanced Video Codec
    Format profile              : High@L4
    Format settings             : 1 Ref Frames
    Format settings, CABAC      : No
    Format settings, Reference  : 1 frame
    Codec ID                    : V_MPEG4/ISO/AVC
    Duration                    : 43 min 1 s
    Bit rate mode               : Constant
    Bit rate                    : 6 000 kb/s
    Width                       : 1 920 pixels
    Height                      : 1 080 pixels
    Display aspect ratio        : 16:9
    Frame rate mode             : Constant
    Frame rate                  : 29.970 (30000/1001) FPS
    Standard                    : Component
    Color space                 : YUV
    Chroma subsampling          : 4:2:0
    Bit depth                   : 8 bits
    Scan type                   : Progressive
    Bits/(Pixel*Frame)          : 0.097
    Stream size                 : 1.80 GiB (89%)
    Title                       : CinemaniaHDD.Net
    Default                     : Yes
    Forced                      : No
    Color range                 : Limited
    Color primaries             : BT.601 NTSC
    Transfer characteristics    : BT.601
    Matrix coefficients         : BT.601

    Audio #1
    ID                          : 2
    Format                      : AC-3
    Format/Info                 : Audio Coding 3
    Commercial name             : Dolby Digital
    Codec ID                    : A_AC3
    Duration                    : 43 min 1 s
    Bit rate mode               : Constant
    Bit rate                    : 384 kb/s
    Channel(s)                  : 2 channels
    Channel layout              : L R
    Sampling rate               : 48.0 kHz
    Frame rate                  : 31.250 FPS (1536 SPF)
    Compression mode            : Lossy
    Stream size                 : 118 MiB (6%)
    Title                       : Español latino [CinemaniaHDD]
    Language                    : Spanish
    Service kind                : Complete Main
    Default                     : Yes
    Forced                      : No

    Audio #2
    ID                          : 3
    Format                      : E-AC-3
    Format/Info                 : Enhanced AC-3
    Commercial name             : Dolby Digital Plus
    Codec ID                    : A_EAC3
    Duration                    : 43 min 1 s
    Bit rate mode               : Constant
    Bit rate                    : 192 kb/s
    Channel(s)                  : 2 channels
    Channel layout              : L R
    Sampling rate               : 48.0 kHz
    Frame rate                  : 31.250 FPS (1536 SPF)
    Compression mode            : Lossy
    Stream size                 : 59.1 MiB (3%)
    Title                       : Inglés [CinemaniaHDD]
    Language                    : English
    Service kind                : Complete Main
    Default                     : No
    Forced                      : No

    Audio #3
    ID                          : 4
    Format                      : E-AC-3
    Format/Info                 : Enhanced AC-3
    Commercial name             : Dolby Digital Plus
    Codec ID                    : A_EAC3
    Duration                    : 43 min 1 s
    Bit rate mode               : Constant
    Bit rate                    : 192 kb/s
    Channel(s)                  : 2 channels
    Channel layout              : L R
    Sampling rate               : 48.0 kHz
    Frame rate                  : 31.250 FPS (1536 SPF)
    Compression mode            : Lossy
    Stream size                 : 59.1 MiB (3%)
    Title                       : English
    Language                    : English
    Service kind                : Complete Main
    Default                     : No
    Forced                      : No

     

  • Peso: 2.03 GiB C/U --- PRIMER CAPITULO AGREGADO

Sinopsis

Super Heists abre los archivos de los casos de expertos ladrones, examinando sus crímenes desde dos puntos de vista distintos pero paralelos: los propios autores intelectuales y los investigadores que los persiguen obstinadamente. Ya sea que se trate de los enormes fondos que financian estos atracos o de la loca carrera de los ladrones para esconder su botín, los investigadores saben que la mejor manera de resolver el caso es seguir el rastro del dinero

 

PRIMER CAPITULO AGREGADO

Ficha técnica

  • Titulo original: Super Heists
  • Fecha de lanzamiento: 09-08-2021
  • Género: Series

Video trailer de la película

Enlaces de descarga

Rip de Bluray

Descargar Super Heists (2021) Temporada 1 WEB-DL 1080p Latino




Aportes de DPeliculasHDmega la pass es:dpeliculashdmega.org Aportes de CinemaniaHD la pass es:cinemaniahdd.com
Guardado en : Series

Películas relacionadas

descargar Super Heists (2021) Temporada 1 WEB-DL 1080p Latino 1080p 1080p gratis, Super Heists (2021) Temporada 1 WEB-DL 1080p Latino 1080p mega 1 link, Super Heists (2021) Temporada 1 WEB-DL 1080p Latino 1080p serie completa, descargar Super Heists (2021) Temporada 1 WEB-DL 1080p Latino 1080p gratis en mega.

Super Heists (2021) Temporada 1 WEB-DL 1080p Latino pelicula full hd, Super Heists (2021) Temporada 1 WEB-DL 1080p Latino mega latino, Super Heists (2021) Temporada 1 WEB-DL 1080p Latino 4k latino, Super Heists (2021) Temporada 1 WEB-DL 1080p Latino pelicula completa, Super Heists (2021) Temporada 1 WEB-DL 1080p Latino descargar gratis, descargar Super Heists (2021) Temporada 1 WEB-DL 1080p Latino pelicula latino, Super Heists (2021) Temporada 1 WEB-DL 1080p Latino 1 link mega, Super Heists (2021) Temporada 1 WEB-DL 1080p Latino 1 link google drive, Super Heists (2021) Temporada 1 WEB-DL 1080p Latino hd 1080p latino.
Comentarios 0