×

¿Problemas para descargar con Mozilla, EDGE? Deshabilita la opción "Abrir vinculos en una pestaña nueva" tal como lo muestra ésta imagen.

Sully (2016) REMUX 4K HDR Latino – CMHDD

139 vistas

Información de Sully (2016) REMUX 4K HDR Latino – CMHDD

Datos de la película

  • Calidad: 4K HDR
  • Audio: Español Latino AC3 5.1 BLURAY - Ingles AC3 5.1 BLURAY
  • Subtitulos: Español Latino PGS
  • Resolución: 3840x2160p
  • Formato: MKV
  • Codec: H.264
  • Encoder: Dracarys
  • Mediainfo: Clic para Mostrar Datos Ver
  • Format                      : Matroska
    Format version              : Version 4
    File size                   : 45.5 GiB
    Duration                    : 1 h 35 min
    Overall bit rate mode       : Variable
    Overall bit rate            : 67.9 Mb/s
    Movie name                  : Sully (2016) REMUX 4K HDR Latino - CMHDD
    Encoded date                : UTC 2024-02-13 15:29:20
    Writing application         : mkvmerge v47.0.0 ('Black Flag') 64-bit
    Writing library             : libebml v1.3.10 + libmatroska v1.5.2
    Cover                       : Yes
    Attachments                 : cover.jpg

    Video
    ID                          : 1
    ID in the original source m : 4113 (0x1011)
    Format                      : HEVC
    Format/Info                 : High Efficiency Video Coding
    Format profile              : Main 10@L5.1@High
    HDR format                  : SMPTE ST 2086, HDR10 compatible
    Codec ID                    : V_MPEGH/ISO/HEVC
    Duration                    : 1 h 35 min
    Bit rate                    : 60.0 Mb/s
    Width                       : 3 840 pixels
    Height                      : 2 160 pixels
    Display aspect ratio        : 16:9
    Frame rate mode             : Constant
    Frame rate                  : 23.976 (24000/1001) FPS
    Color space                 : YUV
    Chroma subsampling          : 4:2:0 (Type 2)
    Bit depth                   : 10 bits
    Bits/(Pixel*Frame)          : 0.302
    Stream size                 : 40.1 GiB (88%)
    Writing library             : ATEME Titan File 3.7.8 (4.7.8.0)
    Default                     : Yes
    Forced                      : No
    Color range                 : Limited
    Color primaries             : BT.2020
    Transfer characteristics    : PQ
    Matrix coefficients         : BT.2020 non-constant
    Mastering display color pri : Display P3
    Mastering display luminance : min: 0.0050 cd/m2, max: 4000 cd/m2
    Maximum Content Light Level : 4000 cd/m2
    Maximum Frame-Average Light : 290 cd/m2
    Original source medium      : Blu-ray

    Audio #1
    ID                          : 2
    ID in the original source m : 4352 (0x1100)
    Format                      : MLP FBA 16-ch
    Format/Info                 : Meridian Lossless Packing FBA with 16-channel presentation
    Commercial name             : Dolby TrueHD with Dolby Atmos
    Codec ID                    : A_TRUEHD
    Duration                    : 1 h 35 min
    Bit rate mode               : Variable
    Bit rate                    : 6 798 kb/s
    Maximum bit rate            : 12.0 Mb/s
    Channel(s)                  : 8 channels
    Channel layout              : L R C LFE Ls Rs Lb Rb
    Sampling rate               : 48.0 kHz
    Frame rate                  : 1 200.000 FPS (40 SPF)
    Compression mode            : Lossless
    Stream size                 : 4.55 GiB (10%)
    Language                    : English
    Default                     : No
    Forced                      : No
    Original source medium      : Blu-ray
    Number of dynamic objects   : 11
    Bed channel count           : 1 channel
    Bed channel configuration   : LFE

    Audio #2
    ID                          : 3
    ID in the original source m : 4352 (0x1100)
    Format                      : AC-3
    Format/Info                 : Audio Coding 3
    Commercial name             : Dolby Digital
    Codec ID                    : A_AC3
    Duration                    : 1 h 35 min
    Bit rate mode               : Constant
    Bit rate                    : 640 kb/s
    Channel(s)                  : 6 channels
    Channel layout              : L R C LFE Ls Rs
    Sampling rate               : 48.0 kHz
    Frame rate                  : 31.250 FPS (1536 SPF)
    Compression mode            : Lossy
    Stream size                 : 439 MiB (1%)
    Language                    : English
    Service kind                : Complete Main
    Default                     : No
    Forced                      : No
    Original source medium      : Blu-ray

    Audio #3
    ID                          : 4
    ID in the original source m : 4357 (0x1105)
    Format                      : AC-3
    Format/Info                 : Audio Coding 3
    Commercial name             : Dolby Digital
    Codec ID                    : A_AC3
    Duration                    : 1 h 35 min
    Bit rate mode               : Constant
    Bit rate                    : 448 kb/s
    Channel(s)                  : 6 channels
    Channel layout              : L R C LFE Ls Rs
    Sampling rate               : 48.0 kHz
    Frame rate                  : 31.250 FPS (1536 SPF)
    Compression mode            : Lossy
    Stream size                 : 307 MiB (1%)
    Language                    : Spanish
    Service kind                : Complete Main
    Default                     : Yes
    Forced                      : No
    Original source medium      : Blu-ray

    Text #1
    ID                          : 5
    ID in the original source m : 4777 (0x12A9)
    Format                      : PGS
    Muxing mode                 : zlib
    Codec ID                    : S_HDMV/PGS
    Codec ID/Info               : Picture based subtitle format used on BDs/HD-DVDs
    Duration                    : 1 h 35 min
    Bit rate                    : 38.6 kb/s
    Frame rate                  : 0.529 FPS
    Count of elements           : 3038
    Stream size                 : 26.5 MiB (0%)
    Language                    : Spanish
    Default                     : No
    Forced                      : No
    Original source medium      : Blu-ray

    Text #2
    ID                          : 6
    ID in the original source m : 4789 (0x12B5)
    Format                      : PGS
    Muxing mode                 : zlib
    Codec ID                    : S_HDMV/PGS
    Codec ID/Info               : Picture based subtitle format used on BDs/HD-DVDs
    Duration                    : 1 h 32 min
    Bit rate                    : 1 251 b/s
    Frame rate                  : 0.015 FPS
    Count of elements           : 86
    Stream size                 : 848 KiB (0%)
    Language                    : Spanish
    Default                     : No
    Forced                      : No
    Original source medium      : Blu-ray

    Menu
    00:00:00.000                : en:Capítulo 01
    00:11:12.505                : en:Capítulo 02
    00:18:06.168                : en:Capítulo 03
    00:29:57.921                : en:Capítulo 04
    00:38:55.416                : en:Capítulo 05
    00:49:20.749                : en:Capítulo 06
    01:00:50.855                : en:Capítulo 07
    01:08:16.383                : en:Capítulo 08
    01:18:09.810                : en:Capítulo 09
    01:26:59.797                : en:Capítulo 10

     

  • Peso: 45.5 GiB

Sinopsis

Chesley ‘Sully’ Sullenberger es un piloto comercial que en 2009 se convirtió en un héroe cuando, al poco de despegar, su avión se averió y el comandante logró realizar un aterrizaje forzoso del aparato en pleno río Hudson, en Nueva York, con 155 pasajeros a bordo.

Ficha técnica

Video trailer de la película

Enlaces de descarga

Rip de Bluray

Descargar Sully (2016) REMUX 4K HDR Latino – CMHDD




Aportes de DPeliculasHDmega la pass es:dpeliculashdmega.org Aportes de CinemaniaHD la pass es:cinemaniahdd.com Aportes recientes:cinemaniahdd.net
Guardado en : Drama , Historia

Películas relacionadas

descargar Sully (2016) REMUX 4K HDR Latino – CMHDD 4K HDR 1080p gratis, Sully (2016) REMUX 4K HDR Latino – CMHDD 4K HDR mega 1 link, Sully (2016) REMUX 4K HDR Latino – CMHDD 4K HDR pelicula completa, descargar Sully (2016) REMUX 4K HDR Latino – CMHDD 4K HDR gratis en mega.

Sully (2016) REMUX 4K HDR Latino – CMHDD pelicula full hd, Sully (2016) REMUX 4K HDR Latino – CMHDD mega latino, Sully (2016) REMUX 4K HDR Latino – CMHDD 4k latino, Sully (2016) REMUX 4K HDR Latino – CMHDD pelicula completa, Sully (2016) REMUX 4K HDR Latino – CMHDD descargar gratis, descargar Sully (2016) REMUX 4K HDR Latino – CMHDD pelicula latino, Sully (2016) REMUX 4K HDR Latino – CMHDD 1 link mega, Sully (2016) REMUX 4K HDR Latino – CMHDD 1 link google drive, Sully (2016) REMUX 4K HDR Latino – CMHDD hd 1080p latino.
Comentarios 0