Suburbicon: bienvenidos al paraíso (2017) 1080p Latino

729 vistas
1 estrella2 estrellas3 estrellas4 estrellas5 estrellas (Ninguna valoración todavía)
Cargando…

Información de Suburbicon: bienvenidos al paraíso (2017) 1080p Latino

Datos de la película

  • Calidad: 1080p
  • Audio: Español Latino AC3 5.1 DVD - Ingles AC3 5.1 BLURAY
  • Subtitulos: Español Latino SRT- FORZADOS SRT
  • Resolución: 1920X808p
  • Formato: MKV
  • Codec: H.264
  • Encoder: Dracarys
  • Mediainfo: Clic para Mostrar Datos Ver
  • Format                                   : Matroska
    Format version                           : Version 4 / Version 2
    File size                                : 3.31 GiB
    Duration                                 : 1 h 45 min
    Overall bit rate                         : 4 515 kb/s
    Movie name                               : CinemaniaHDD.com
    Encoded date                             : UTC 2018-01-27 07:01:43 / UTC 2018-01-27T04:38:56Z
    Writing application                      : mkvmerge v15.0.0 ('Duel with the Devil') 64-bit
    Writing library                          : libebml v1.3.5 + libmatroska v1.4.5 / Lavf57.7.2

    Video
    ID                                       : 1
    Format                                   : AVC
    Format/Info                              : Advanced Video Codec
    Format profile                           : [email protected]
    Format settings                          : CABAC / 4 Ref Frames
    Format settings, CABAC                   : Yes
    Format settings, RefFrames               : 4 frames
    Codec ID                                 : V_MPEG4/ISO/AVC
    Duration                                 : 1 h 45 min
    Bit rate                                 : 3 500 kb/s
    Width                                    : 1 920 pixels
    Height                                   : 808 pixels
    Display aspect ratio                     : 2.40:1
    Frame rate mode                          : Constant
    Frame rate                               : 23.976 (24000/1001) FPS
    Color space                              : YUV
    Chroma subsampling                       : 4:2:0
    Bit depth                                : 8 bits
    Scan type                                : Progressive
    Bits/(Pixel*Frame)                       : 0.094
    Stream size                              : 2.50 GiB (75%)
    Title                                    : Suburbicon bienvenidos al paraíso (2017) 1080p Latino
    Writing library                          : x264 core 148 r2708 86b7198
    Encoding settings                        : cabac=1 / ref=3 / deblock=1:0:0 / analyse=0x3:0x113 / me=hex / subme=7 / psy=1 / psy_rd=1.00:0.00 / mixed_ref=1 / me_range=16 / chroma_me=1 / trellis=1 / 8x8dct=1 / cqm=0 / deadzone=21,11 / fast_pskip=1 / chroma_qp_offset=-2 / threads=25 / lookahead_threads=4 / sliced_threads=0 / nr=0 / decimate=1 / interlaced=0 / bluray_compat=0 / constrained_intra=0 / bframes=3 / b_pyramid=2 / b_adapt=1 / b_bias=0 / direct=1 / weightb=1 / open_gop=0 / weightp=2 / keyint=240 / keyint_min=24 / scenecut=40 / intra_refresh=0 / rc_lookahead=40 / rc=abr / mbtree=1 / bitrate=3500 / ratetol=1.0 / qcomp=0.60 / qpmin=0 / qpmax=69 / qpstep=4 / vbv_maxrate=62500 / vbv_bufsize=78125 / nal_hrd=none / filler=0 / ip_ratio=1.40 / aq=1:1.00
    Language                                 : English
    Default                                  : Yes
    Forced                                   : No
    Color range                              : Limited
    Color primaries                          : BT.709
    Transfer characteristics                 : BT.709
    Matrix coefficients                      : BT.709
    Statistics Tags Issue                    : mkvmerge v15.0.0 ('Duel with the Devil') 64-bit 2018-01-27 07:01:43 / mkvmerge v15.0.0 ('Duel with the Devil') 64-bit 2018-01-27 07:01:43 / UTC 2018-01-27T04:38:56Z
    FromStats_BitRate                        : 3489023
    FromStats_Duration                       : 01:45:02.588000000
    FromStats_FrameCount                     : 151111
    FromStats_StreamSize                     : 2748734689

    Audio #1
    ID                                       : 2
    Format                                   : AC-3
    Format/Info                              : Audio Coding 3
    Format settings, Endianness              : Big
    Codec ID                                 : A_AC3
    Duration                                 : 1 h 45 min
    Bit rate mode                            : Constant
    Bit rate                                 : 384 kb/s
    Channel(s)                               : 6 channels
    Channel positions                        : Front: L C R, Side: L R, LFE
    Sampling rate                            : 48.0 kHz
    Frame rate                               : 31.250 FPS (1536 SPF)
    Bit depth                                : 16 bits
    Compression mode                         : Lossy
    Delay relative to video                  : 795 ms
    Stream size                              : 289 MiB (9%)
    Language                                 : Spanish
    Service kind                             : Complete Main
    Default                                  : Yes
    Forced                                   : No
    Statistics Tags Issue                    : mkvmerge v15.0.0 ('Duel with the Devil') 64-bit 2018-01-27 07:01:43 / mkvmerge v15.0.0 ('Duel with the Devil') 64-bit 2018-01-27 07:01:43 / UTC 2018-01-27T04:38:56Z
    FromStats_BitRate                        : 384000
    FromStats_Duration                       : 01:44:59.904000000
    FromStats_FrameCount                     : 196872
    FromStats_StreamSize                     : 302395392

    Audio #2
    ID                                       : 3
    Format                                   : AC-3
    Format/Info                              : Audio Coding 3
    Format settings, Endianness              : Big
    Codec ID                                 : A_AC3
    Duration                                 : 1 h 45 min
    Bit rate mode                            : Constant
    Bit rate                                 : 640 kb/s
    Channel(s)                               : 6 channels
    Channel positions                        : Front: L C R, Side: L R, LFE
    Sampling rate                            : 48.0 kHz
    Frame rate                               : 31.250 FPS (1536 SPF)
    Bit depth                                : 16 bits
    Compression mode                         : Lossy
    Delay relative to video                  : -5 ms
    Stream size                              : 481 MiB (14%)
    Language                                 : English
    Service kind                             : Complete Main
    Default                                  : No
    Forced                                   : No
    Statistics Tags Issue                    : mkvmerge v15.0.0 ('Duel with the Devil') 64-bit 2018-01-27 07:01:43 / mkvmerge v15.0.0 ('Duel with the Devil') 64-bit 2018-01-27 07:01:43 / UTC 2018-01-27T04:38:56Z
    FromStats_BitRate                        : 640000
    FromStats_Duration                       : 01:45:02.560000000
    FromStats_FrameCount                     : 196955
    FromStats_StreamSize                     : 504204800

    Text #1
    ID                                       : 4
    Format                                   : UTF-8
    Codec ID                                 : S_TEXT/UTF8
    Codec ID/Info                            : UTF-8 Plain Text
    Title                                    : Forzados
    Language                                 : Spanish
    Default                                  : Yes
    Forced                                   : Yes
    Statistics Tags Issue                    : mkvmerge v15.0.0 ('Duel with the Devil') 64-bit 2018-01-27 07:01:43 / mkvmerge v15.0.0 ('Duel with the Devil') 64-bit 2018-01-27 07:01:43 / UTC 2018-01-27T04:38:56Z
    FromStats_BitRate                        : 0
    FromStats_Duration                       : 01:05:18.551000000
    FromStats_FrameCount                     : 11
    FromStats_StreamSize                     : 421

    Text #2
    ID                                       : 5
    Format                                   : UTF-8
    Codec ID                                 : S_TEXT/UTF8
    Codec ID/Info                            : UTF-8 Plain Text
    Language                                 : Spanish
    Default                                  : No
    Forced                                   : No
    Statistics Tags Issue                    : mkvmerge v15.0.0 ('Duel with the Devil') 64-bit 2018-01-27 07:01:43 / mkvmerge v15.0.0 ('Duel with the Devil') 64-bit 2018-01-27 07:01:43 / UTC 2018-01-27T04:38:56Z
    FromStats_BitRate                        : 52
    FromStats_Duration                       : 01:35:00.146000000
    FromStats_FrameCount                     : 1262
    FromStats_StreamSize                     : 37358

    Menu
    00:00:00.000                             : :00:00:00.000
    00:04:50.165                             : :00:04:50.165
    00:15:11.452                             : :00:15:11.452
    00:23:09.305                             : :00:23:09.305
    00:33:08.612                             : :00:33:08.612
    00:39:36.916                             : :00:39:36.916
    00:44:29.125                             : :00:44:29.125
    00:49:19.540                             : :00:49:19.540
    00:56:36.560                             : :00:56:36.560
    01:05:06.778                             : :01:05:06.778
    01:14:14.283                             : :01:14:14.283
    01:23:46.855                             : :01:23:46.855
    01:27:54.352                             : :01:27:54.352
    01:33:47.914                             : :01:33:47.914
    01:37:15.288                             : :01:37:15.204

  • Peso: 3.31 GiB

Sinopsis

Un misterio criminal ambientado en un tranquilo pueblo familiar norteamericano durante los años 50, donde lo mejor y lo peor de la humanidad se ve reflejado en las vidas de la gente corriente. Cuando un allanamiento de morada se vuelve mortal, una familia aparentemente perfecta empezará a hacer uso del chantaje, la venganza y la traición.

Ficha técnica

Video trailer de la película

Enlaces de descarga

Rip de Bluray

Descargar Suburbicon: bienvenidos al paraíso (2017) 1080p Latino




Aportes de DPeliculasHDmega la pass es:dpeliculashdmega.org Aportes de CinemaniaHD la pass es:cinemaniahdd.com
Guardado en : Acción , Comedia , Crimen , Drama , Misterio

Películas relacionadas

  • Venganza Un historia de Amor (2017) 1080p Latino

    2017
    Venganza Un historia de Amor (2017) 1080p Latino

    5.0 1h 39m 2017

    Teena, una joven viuda es violada por cuatro asaltantes y la brutal agresión es presenciada por su hija...

    Director: Johnny Martin

    Género: Acción

    Actores: Talitha Bateman

  • El Reino de los Supermanes (2019) 1080p Latino

    2019
    El Reino de los Supermanes (2019) 1080p Latino

    5.0 1h 27m 2019

    Descargar El Reino de los Supermanes (2019) 1080p Latino, Mega, Google Drive, Torrent. Superman ha muerto...

    Director: Sam Liu

    Género: Acción

    Actores: Trevor Devall

  • El Reino (2018) HD 1080p Español

    2018
    El Reino (2018) HD 1080p Español

    0.0 2h 15m 2018

    Descargar El Reino (2018) HD 1080p Español, Mega, Google Drive, Torrent. Manuel (Antonio de la Torre),...

    Director: Rodrigo Sorogoyen

    Género: Castellano

    Actores: Paco Revilla

  • Campeones (2018) HD 1080p Español

    2018
    Campeones (2018) HD 1080p Español

    0.0 2h 4m 2018

    Descargar Campeones (2018) HD 1080p Español, Mega, Google Drive, Torrent. Marco, un entrenador profesional...

    Director: Javier Fesser

    Género: Castellano

    Actores: Yiyo Alonso

Comentarios 0