Submission (2019) WEB-DL 1080p Latino

42 vistas
1 estrella2 estrellas3 estrellas4 estrellas5 estrellas (1 votos, promedio: 5,00 de 5)
Cargando...

Información de Submission (2019) WEB-DL 1080p Latino

Datos de la película

  • Calidad: 1080p
  • Audio: Español Latino AC3 2.0 WEB-DL - Ingles AC3 2.0 WEB-DL
  • Subtitulos: Español Latino SRT- FORZADOS SRT
  • Resolución: 1920x800
  • Formato: MKV
  • Codec: H.264
  • Encoder: cinemaniahdd
  • Mediainfo: Clic para Mostrar Datos Ver
  • Submission (2019) WEB-DL 1080p Latino [CNMNHDD].mkv
    Format                      : Matroska
    Format version              : Version 4
    File size                   : 4.34 GiB
    Duration                    : 1 h 34 min
    Overall bit rate            : 6 583 kb/s
    Movie name                  : Submission (2019) - CinemaniaHDD.Net
    Encoded date                : UTC 2021-07-25 21:17:03
    Writing application         : mkvmerge v56.1.0 ('My Friend') 64-bit
    Writing library             : libebml v1.4.2 + libmatroska v1.6.4

    Video
    ID                          : 1
    Format                      : AVC
    Format/Info                 : Advanced Video Codec
    Format profile              : High@L4
    Format settings             : CABAC / 4 Ref Frames
    Format settings, CABAC      : Yes
    Format settings, Reference  : 4 frames
    Codec ID                    : V_MPEG4/ISO/AVC
    Duration                    : 1 h 34 min
    Bit rate mode               : Constant
    Bit rate                    : 5 813 kb/s
    Width                       : 1 920 pixels
    Height                      : 800 pixels
    Display aspect ratio        : 2.40:1
    Frame rate mode             : Constant
    Frame rate                  : 23.976 (24000/1001) FPS
    Color space                 : YUV
    Chroma subsampling          : 4:2:0
    Bit depth                   : 8 bits
    Scan type                   : Progressive
    Bits/(Pixel*Frame)          : 0.158
    Stream size                 : 3.84 GiB (88%)
    Title                       : CinemaniaHDD
    Language                    : English
    Default                     : Yes
    Forced                      : No
    Color range                 : Limited
    Color primaries             : BT.709
    Transfer characteristics    : BT.709
    Matrix coefficients         : BT.709

    Audio #1
    ID                          : 2
    Format                      : AC-3
    Format/Info                 : Audio Coding 3
    Commercial name             : Dolby Digital
    Codec ID                    : A_AC3
    Duration                    : 1 h 34 min
    Bit rate mode               : Constant
    Bit rate                    : 384 kb/s
    Channel(s)                  : 2 channels
    Channel layout              : L R
    Sampling rate               : 48.0 kHz
    Frame rate                  : 31.250 FPS (1536 SPF)
    Compression mode            : Lossy
    Stream size                 : 260 MiB (6%)
    Title                       : Español latino [CinemaniaHDD]
    Language                    : Spanish
    Service kind                : Complete Main
    Default                     : Yes
    Forced                      : No

    Audio #2
    ID                          : 3
    Format                      : AC-3
    Format/Info                 : Audio Coding 3
    Commercial name             : Dolby Digital
    Codec ID                    : A_AC3
    Duration                    : 1 h 34 min
    Bit rate mode               : Constant
    Bit rate                    : 384 kb/s
    Channel(s)                  : 2 channels
    Channel layout              : L R
    Sampling rate               : 48.0 kHz
    Frame rate                  : 31.250 FPS (1536 SPF)
    Compression mode            : Lossy
    Stream size                 : 260 MiB (6%)
    Title                       : Inglés [CinemaniaHDD]
    Language                    : English
    Service kind                : Complete Main
    Default                     : No
    Forced                      : No

    Text #1
    ID                          : 4
    Format                      : UTF-8
    Codec ID                    : S_TEXT/UTF8
    Codec ID/Info               : UTF-8 Plain Text
    Duration                    : 1 h 18 min
    Bit rate                    : 1 b/s
    Count of elements           : 15
    Stream size                 : 617 Bytes (0%)
    Title                       : Forzados [CinemaniaHDD]
    Language                    : Spanish
    Default                     : Yes
    Forced                      : Yes

    Text #2
    ID                          : 5
    Format                      : UTF-8
    Codec ID                    : S_TEXT/UTF8
    Codec ID/Info               : UTF-8 Plain Text
    Duration                    : 1 h 33 min
    Bit rate                    : 57 b/s
    Count of elements           : 1141
    Stream size                 : 39.8 KiB (0%)
    Title                       : Español latino [CinemaniaHDD]
    Language                    : Spanish
    Default                     : No
    Forced                      : No

     

  • Peso: 4.34 GiB

Sinopsis

Después de que dos marines regresan a casa después de un interrogatorio de ISIS, uno lucha por sobrevivir mientras que el otro lucha para regresar al mundo de las artes marciales mixtas que dejó atrás hace años.

Ficha técnica

  • Titulo original: Submission
  • Fecha de lanzamiento: 19-09-2019 (United States of America)
  • Director: J.M. Berrios
  • Género: Drama
  • Puntuación: 5.0 1 votos
  • Duración:
    1h 34m

Video trailer de la película

Enlaces de descarga

Rip de Bluray

Descargar Submission (2019) WEB-DL 1080p Latino




Aportes de DPeliculasHDmega la pass es:dpeliculashdmega.org Aportes de CinemaniaHD la pass es:cinemaniahdd.com
Guardado en : Drama

Películas relacionadas

Submission (2019) WEB-DL 1080p Latino pelicula full hd, Submission (2019) WEB-DL 1080p Latino mega latino, Submission (2019) WEB-DL 1080p Latino 4k latino, Submission (2019) WEB-DL 1080p Latino pelicula completa, Submission (2019) WEB-DL 1080p Latino descargar gratis, descargar Submission (2019) WEB-DL 1080p Latino pelicula latino, Submission (2019) WEB-DL 1080p Latino 1 link mega, Submission (2019) WEB-DL 1080p Latino 1 link google drive, Submission (2019) WEB-DL 1080p Latino hd 1080p latino.
Comentarios 0